Tags
Language
Tags

Tore Johansen - Nå, Lille Humle (2022) [Official Digital Download 24/96]

Posted By: pyatak
Tore Johansen - Nå, Lille Humle (2022) [Official Digital Download 24/96]

Tore Johansen - Nå, Lille Humle (2022) [Official Digital Download 24/96]
FLAC (tracks) 24-bit/96 kHz | Front Cover | Time - 40:32 minutes | 710 MB
Vocal Jazz | Label: Inner Ear, Official Digital Download

Tore Johansen (born 23 December 1977) is a Norwegian jazz trumpeter and the younger brother of drummer Roger Johansen. He has worked with Chick Corea, Karin Krog, Kenny Wheeler, Steve Swallow, Lars Jansson, Hal Galper, Siri Gellein, and Jan Gunnar Hoff.

TRACKLIST

1. Tore Johansen - Å, huffameg, sånt barn han var!
2. Tore Johansen - Du kjære lille snekkerbu
3. Tore Johansen - Lille katt
4. Tore Johansen - Jeg gjør sånn at blomstene blomstrer
5. Tore Johansen - Da mamma var liten, da var hun så god
6. Tore Johansen - Fattig gårdsgutt
7. Tore Johansen - Verdens beste Karlson
8. Tore Johansen - Hvem er ikke redd iblant?
9. Tore Johansen - Sommeren er min
10. Tore Johansen - Mors lille lathund
11. Tore Johansen - Barna i Bakkebygrenda
12. Tore Johansen - Alle skal sove, for nå er det natt

foobar2000 1.6.2 / Dynamic Range Meter 1.1.1
log date: 2022-04-02 11:27:40

––––––––––––––––––––––––––––––––––––––––
Analyzed: Tore Johansen / Nå, Lille Humle
––––––––––––––––––––––––––––––––––––––––

DR Peak RMS Duration Track
––––––––––––––––––––––––––––––––––––––––
DR9 -1.30 dB -13.09 dB 4:10 01-Å, huffameg, sånt barn han var!
DR11 -1.30 dB -14.12 dB 2:31 02-Du kjære lille snekkerbu
DR11 -1.30 dB -15.80 dB 2:21 03-Lille katt
DR12 -1.30 dB -17.15 dB 4:18 04-Jeg gjør sånn at blomstene blomstrer
DR12 -1.30 dB -16.07 dB 4:58 05-Da mamma var liten, da var hun så god
DR12 -1.30 dB -16.68 dB 3:42 06-Fattig gårdsgutt
DR11 -1.30 dB -14.38 dB 3:21 07-Verdens beste Karlson
DR12 -2.03 dB -18.45 dB 3:37 08-Hvem er ikke redd iblant?
DR11 -1.30 dB -15.20 dB 2:09 09-Sommeren er min
DR11 -1.30 dB -15.17 dB 2:31 10-Mors lille lathund
DR11 -1.30 dB -15.31 dB 3:34 11-Barna i Bakkebygrenda
DR10 -1.30 dB -15.10 dB 3:26 12-Alle skal sove, for nå er det natt
––––––––––––––––––––––––––––––––––––––––

Number of tracks: 12
Official DR value: DR11

Samplerate: 96000 Hz
Channels: 2
Bits per sample: 24
Bitrate: 2635 kbps
Codec: FLAC
================================================================================



Thanks to the Original customer.