Tags
Language
Tags

Trio Marie Soldat - Beethoven- Piano Trio, Op. 70 No. 2 & Schubert- Piano Trio Op. 100 (2021) [Official Digital Download 24/96]

Posted By: pyatak
Trio Marie Soldat - Beethoven- Piano Trio, Op. 70 No. 2 & Schubert- Piano Trio Op. 100 (2021) [Official Digital Download 24/96]

Trio Marie Soldat - Beethoven- Piano Trio, Op. 70 No. 2 & Schubert- Piano Trio Op. 100 (2021) [Official Digital Download 24/96]
FLAC (tracks) 24-bit/96 kHz | Front Cover | Time - 78:25 minutes | 1,43 GB
Classical | Label: Linn Records, Official Digital Download

Newly formed Trio Marie Soldat releases its eagerly awaited debut album on Linn. Comprising violinist Cecilia Bernardini, fortepianist Keiko Shichijo and cellist Marcus van den Munckhof, the Dutch trio takes its name from Marie Soldat-Roeger, a pupil of Joseph Joachim and celebrated violinist who formed perhaps the first all-women chamber group in 1887 known as the Soldat Quartet. The programme includes two E-flat major masterpieces of the genre, fittingly performed on period instruments.

TRACKLIST

1. Trio Marie Soldat - I. Poco sostenuto; Allegro ma non troppo
2. Trio Marie Soldat - II. Allegretto
3. Trio Marie Soldat - III. Allegretto ma non troppo
4. Trio Marie Soldat - IV. Finale: Allegro
5. Trio Marie Soldat - I. Allegro
6. Trio Marie Soldat - II. Andante con moto
7. Trio Marie Soldat - III. Scherzo: Allegro moderato
8. Trio Marie Soldat - IV. Allegro moderato

foobar2000 1.6.2 / Dynamic Range Meter 1.1.1
log date: 2021-10-22 14:46:30

––––––––––––––––––––––––––––––––––––––––
Analyzed: Trio Marie Soldat / Beethoven: Piano Trio, Op. 70 No. 2 & Schubert: Piano Trio Op. 100
––––––––––––––––––––––––––––––––––––––––

DR Peak RMS Duration Track
––––––––––––––––––––––––––––––––––––––––
DR14 -3.73 dB -21.89 dB 10:01 01-I. Poco sostenuto; Allegro ma non troppo
DR13 -1.13 dB -21.31 dB 5:15 02-II. Allegretto
DR13 -6.65 dB -24.58 dB 4:59 03-III. Allegretto ma non troppo
DR14 -2.49 dB -20.81 dB 8:13 04-IV. Finale: Allegro
DR16 -0.18 dB -21.12 dB 15:41 05-I. Allegro
DR15 -1.47 dB -21.97 dB 8:42 06-II. Andante con moto
DR16 -1.18 dB -22.98 dB 6:47 07-III. Scherzo: Allegro moderato
DR14 -1.68 dB -20.40 dB 19:21 08-IV. Allegro moderato
––––––––––––––––––––––––––––––––––––––––

Number of tracks: 8
Official DR value: DR14

Samplerate: 96000 Hz
Channels: 2
Bits per sample: 24
Bitrate: 2634 kbps
Codec: FLAC
================================================================================



Thanks to the Original customer.