Tags
Language
Tags

Uta Weyand, Nordwestdeutsche Philharmonie & Yves Abel - Ravel & Bizet - Orchestral Works (2021) [Official Digital Download]

Posted By: pyatak
Uta Weyand, Nordwestdeutsche Philharmonie & Yves Abel - Ravel & Bizet - Orchestral Works (2021) [Official Digital Download]

Uta Weyand, Nordwestdeutsche Philharmonie & Yves Abel - Ravel & Bizet - Orchestral Works (2021) [Official Digital Download]
FLAC (tracks) 24-bit/48 kHz | Front Cover | Time - 60:35 minutes | 572 MB
Classical | Label: Ars Produktion, Official Digital Download

It is not often that one is lucky enough to directly observe the creation of unique beauty, perfect craftsmanship, absolute passion and profound dedication. I recently had the wonderful opportunity to experience these with the creation of “Lexposure”, in Cologne at the end of August 2020. This took place in the legendary, state-of-the-art “Riverside Studios”, under the auspices of the producer Ralf Kemper, who actively and artistically directed the entire technical recording at the mixing desk. Thus it came about that the best technology and the best musical skills came together here at one of the most high profile studio locations in the world. With ingenious talents on all of these different levels, it was inevitable that something uniquely beautiful was created. This production was led by the well known Dutch bandleader, pianist, arranger & composer Lex Jasper, and his trio features Vincent Koning on guitar and Frans van Geest on bass. All are masterful veteran musicians in their own right, and complement. So well captured here in this recording, we find a very successful, high-end production of harmonically and melodically beautiful arrangements…Ballads, Bossa Nova and groovy, swinging arrangements of 15 original compositions, which all come together here to form a beautiful “high work of art.” Jasper’s compositions and arrangements all have their own musical horizon, their own claim to timeless beauty and the guarantee and claim to taste and brilliance. You hear it in every note. Its unique sound belongs entirely to him. It runs like a red thread through all of the compositions and arrangements.

TRACKLIST

01. Uta Weyand, Nordwestdeutsche Philharmonie & Yves Abel - Ravel: Piano Concerto in G Major, M. 83 (Version for Piano & Orchestra): I. Allegramente
02. Uta Weyand, Nordwestdeutsche Philharmonie & Yves Abel - Ravel: Piano Concerto in G Major, M. 83 (Version for Piano & Orchestra): II. Adagio assai
03. Uta Weyand, Nordwestdeutsche Philharmonie & Yves Abel - Ravel: Piano Concerto in G Major, M. 83 (Version for Piano & Orchestra): III. Presto
04. Uta Weyand, Nordwestdeutsche Philharmonie & Yves Abel - Ravel: Pavane pour une infante défunte, M. 19 (Version for Orchestra)
05. Uta Weyand, Nordwestdeutsche Philharmonie & Yves Abel - Bizet: Symphony in C Major, WB 33: I. Allegro vivo
06. Uta Weyand, Nordwestdeutsche Philharmonie & Yves Abel - Bizet: Symphony in C Major, WB 33: II. Adagio assai
07. Uta Weyand, Nordwestdeutsche Philharmonie & Yves Abel - Bizet: Symphony in C Major, WB 33: III. Allegro vivace
08. Uta Weyand, Nordwestdeutsche Philharmonie & Yves Abel - Bizet: Symphony in C Major, WB 33: IV. Allegro vivace

foobar2000 1.6.2 / Dynamic Range Meter 1.1.1
log date: 2021-06-30 21:37:36

––––––––––––––––––––––––––––––––––––––––
Analyzed: Uta Weyand, Nordwestdeutsche Philharmonie & Yves Abel / Ravel & Bizet: Orchestral Works
––––––––––––––––––––––––––––––––––––––––

DR Peak RMS Duration Track
––––––––––––––––––––––––––––––––––––––––
DR15 -0.17 dB -20.73 dB 8:49 01-Ravel: Piano Concerto in G Major, M. 83 (Version for Piano & Orchestra): I. Allegramente
DR18 -2.50 dB -27.79 dB 9:06 02-Ravel: Piano Concerto in G Major, M. 83 (Version for Piano & Orchestra): II. Adagio assai
DR16 -0.17 dB -19.99 dB 4:26 03-Ravel: Piano Concerto in G Major, M. 83 (Version for Piano & Orchestra): III. Presto
DR14 -4.69 dB -25.17 dB 6:49 04-Ravel: Pavane pour une infante défunte, M. 19 (Version for Orchestra)
DR14 -0.17 dB -19.13 dB 9:48 05-Bizet: Symphony in C Major, WB 33: I. Allegro vivo
DR15 -3.40 dB -25.31 dB 9:21 06-Bizet: Symphony in C Major, WB 33: II. Adagio assai
DR14 -0.18 dB -18.76 dB 5:43 07-Bizet: Symphony in C Major, WB 33: III. Allegro vivace
DR14 -0.29 dB -18.82 dB 6:33 08-Bizet: Symphony in C Major, WB 33: IV. Allegro vivace
––––––––––––––––––––––––––––––––––––––––

Number of tracks: 8
Official DR value: DR15

Samplerate: 48000 Hz
Channels: 2
Bits per sample: 24
Bitrate: 1445 kbps
Codec: FLAC
================================================================================



Thanks to the Original customer.