Tags
Language
Tags

VA - The Blues: A Real Summit Meeting (1973)

Posted By: v3122
VA - The Blues: A Real Summit Meeting (1973)

VA - The Blues: A Real Summit Meeting (1973)
FLAC (Tracks) 24-bit/44.1 kHz | Official Digital Download | Time: 01:24:46
Blues | Label: Fuel Records | ~ 942 Mb

Besides the legendary B.B. King and Muddy Waters, a live Newport audience in New York hears some lesser lights such as Eddie "Cleanhead" Vinson. Of historical interest, Big Mama Thornton, Arthur "Big Boy" Crudup, and Jay McShann offer renditions of their own songs that were covered for a much larger audience by Janis Joplin, Elvis Presley, and others. An unexpected delight is the electrified violin played by Clarence "Gatemouth" Brown, who backs other performers here as well as taking the lead on two tunes.

by Mark Allan, allmusic
VA - The Blues: A Real Summit Meeting (1973):

Tracklist:

01 - Big Mama Thornton - Little Red Rooster (00:05:50)
02 - Big Mama Thornton - Ball and Chain (00:07:43)
03 - Jay McShann - Smooth Sailing (00:02:58)
04 - Jay McShann - Confessin' the Blues (00:04:38)
05 - Eddie Cleanhead Vinson - They Call Me Mr. Cleanhead (00:04:14)
06 - Eddie Cleanhead Vinson - Hold It Right There (00:04:52)
07 - Eddie Cleanhead Vinson - Back Door Blues (00:04:51)
08 - Eddie Cleanhead Vinson - Kidney Stew Blues (00:04:15)
09 - Arthur Big Boy Crudup - That's Alright Now Mama (00:02:30)
10 - Lloyd Glenn - Honky Tonky Train Blues (00:02:17)
11 - Lloyd Glenn - After Hours (00:03:46)
12 - Lloyd Glenn - Pine Tops Boogie Woogie (00:03:01)
13 - Muddy Waters - Long Distance (00:05:08)
14 - Muddy Waters - Where's My Woman Been (00:04:19)
15 - Muddy Waters - Got My Mojo Workin' (00:03:44)
16 - Clarence Brown - The Drifter (00:07:01)
17 - Clarence Brown - Please Mr. Nixon (00:06:36)
18 - B.B. King - Outside Help (00:06:55)

foobar2000 1.4.2 / Dynamic Range Meter 1.1.1
log date: 2021-08-03 14:21:53

––––––––––––––––––––––––––––––––––––––––
Analyzed: Arthur "Big Boy" Crudup / The Blues (A Real Summit Meeting) (1)
B.B. King / The Blues (A Real Summit Meeting) (2)
Big Mama Thornton / The Blues (A Real Summit Meeting) (3-4)
Clarence Brown / The Blues (A Real Summit Meeting) (5-6)
Eddie "Cleanhead" Vinson / The Blues (A Real Summit Meeting) (7-10)
Jay McShann / The Blues (A Real Summit Meeting) (11-12)
Lloyd Glenn / The Blues (A Real Summit Meeting) (13-15)
Muddy Waters / The Blues (A Real Summit Meeting) (16-18)
––––––––––––––––––––––––––––––––––––––––

DR Peak RMS Duration Track
––––––––––––––––––––––––––––––––––––––––
DR13 -1.17 dB -16.16 dB 2:30 09-That's Alright Now Mama (Live)
DR9 -1.17 dB -14.63 dB 6:55 18-Outside Help (Live)
DR10 -1.17 dB -13.15 dB 5:51 01-Little Red Rooster (Live)
DR10 -1.17 dB -13.10 dB 7:43 02-Ball and Chain (Live)
DR12 -1.17 dB -15.20 dB 7:02 16-The Drifter (Live)
DR10 -1.17 dB -13.26 dB 6:36 17-Please Mr. Nixon (Live)
DR10 -1.17 dB -12.78 dB 4:14 05-They Call Me Mr. Cleanhead (Live)
DR9 -1.17 dB -11.40 dB 4:52 06-Hold It Right There (Live)
DR9 -1.17 dB -12.12 dB 4:52 07-Back Door Blues (Live)
DR8 -1.17 dB -10.44 dB 4:16 08-Kidney Stew Blues (Live)
DR10 -1.17 dB -12.38 dB 2:58 03-Smooth Sailing (Live)
DR10 -1.17 dB -11.93 dB 4:39 04-Confessin' the Blues (Live)
DR10 -1.17 dB -12.13 dB 2:18 10-Honky Tonky Train Blues (Live)
DR10 -1.17 dB -12.43 dB 3:46 11-After Hours (Live)
DR10 -1.17 dB -12.21 dB 3:02 12-Pine Tops Boogie Woogie (Live)
DR10 -1.17 dB -14.27 dB 5:08 13-Long Distance (Live)
DR9 -1.17 dB -12.88 dB 4:19 14-Where's My Woman Been (Live)
DR9 -1.17 dB -11.65 dB 3:45 15-Got My Mojo Workin' (Live)
––––––––––––––––––––––––––––––––––––––––

Number of tracks: 18
Official DR value: DR10

Samplerate: 44100 Hz
Channels: 2
Bits per sample: 24
Bitrate: 1641 kbps
Codec: FLAC

All thanks go to the original releaser

Download VA - The Blues: A Real Summit Meeting (1973):