Tags
Language
Tags

Blood, Sweat & Tears - Blood, Sweat & Tears (1968) [MFSL 2005] PS3 ISO + DSD64 + Hi-Res FLAC

Posted By: HDAtall
Blood, Sweat & Tears - Blood, Sweat & Tears (1968) [MFSL 2005] PS3 ISO + DSD64 + Hi-Res FLAC

Blood, Sweat & Tears - Blood, Sweat & Tears (1968) [MFSL 2005]
PS3 Rip | ISO | SACD DSD64 2.0 > 1-bit/2.8224 MHz | 68:54 minutes | Scans included | 2,16 GB
or DSD64 Stereo (from SACD-ISO to Tracks.dsf) > 1 bit/2,8 MHz | Full Scans included | 1,91 GB
or FLAC (carefully converted & encoded to tracks) 24bit/96 kHz | Full Scans included | 1,58 GB
Mobile Fidelity Sound Lab # UDSACD 2009

Blood, Sweat & Tears is the second album by the band Blood, Sweat & Tears, released in 1968. It was a huge commercial success, rising to the top of the U.S. charts for seven weeks and yielding three successive Top 5 singles. It received a Grammy Award for Album of the Year in 1970 and has been certified quadruple platinum by the RIAA with sales of more than four million units in the U.S. The album was selected for the 2006 book "1001 Albums You Must Hear Before You Die".

This was Blood, Sweat & Tears' apex, and a testimony to the best of the jazz/rock movement. Created by the legendary Al Kooper, the band was one of the major movers in the late-1960s rock scene. Though Kooper had departed after the debut album, this follow-up is bold, brassy, and adventurous, and the arrival of David Clayton-Thomas gave the band a strong singer and focal point. Eclecticism abounds, as an interpretation of an Eric Satie composition is followed by a version of Traffic's "Smiling Phases." Hit singles galore were culled from this record–"Spinning Wheel," "You've Made Me So Very Happy," and "And When I Die,"–not to mention a superb rendition of Billie Holiday's "God Bless The Child."

Tracklist:

01. Variations on a theme by Erik Satie (1st & 2nd movements adapted from "Trois Gymnopedies")
02. Smiling Phases
03. Sometimes In Winter
04. More and More
05. And When I Die
06. God Bless The Child
07. Spinning Wheel
08. You've Made Me So Very Happy
09. Blues - Part II
10. Variations on a theme by Erik Satie (1st movement adapted from "Trois Gymnopedies")
11. More and More [Live]
12. Smiling Phases [Live]

Original Album Produced by James William Guercio.
Mastered by Shawn R. Britton at Mobile Fidelity Sound Lab, Sebastopol, CA.

foobar2000 1.6.7 / Dynamic Range Meter 1.1.1

––––––––––––––––––––––––––––––––––––––––
Analyzed: BLOOD SWEAT & TEARS / Blood, Sweat & Tears
––––––––––––––––––––––––––––––––––––––––

DR Peak RMS Duration Track
––––––––––––––––––––––––––––––––––––––––
DR12 -7.36 dB -23.27 dB 2:33 01-Variations on a theme by Erik Satie, 1st & 2nd movements adapted from "Trois Gymnopedies"
DR12 -4.14 dB -18.98 dB 5:09 02-Smiling Phases
DR11 -4.65 dB -18.80 dB 3:07 03-Sometimes In Winter
DR10 -4.58 dB -17.50 dB 3:02 04-More and More
DR12 -5.10 dB -21.25 dB 4:03 05-And When I Die
DR12 -4.74 dB -20.24 dB 5:53 06-God Bless The Child
DR13 -4.13 dB -19.28 dB 4:06 07-Spinning Wheel
DR12 -4.54 dB -19.16 dB 4:16 08-You've Made Me So Very Happy
DR12 -4.54 dB -21.15 dB 11:46 09-Blues - Part II
DR9 -8.68 dB -23.55 dB 1:39 10-Variations on a theme by Erik Satie, 1st movement adapted from "Trois Gymnopedies"
DR12 -5.16 dB -19.31 dB 4:38 11-More and More (live)
DR12 -5.53 dB -21.52 dB 18:43 12-Smiling Phases (live)
––––––––––––––––––––––––––––––––––––––––

Number of tracks: 12
Official DR value: DR12

Samplerate: 2822400 Hz / PCM Samplerate: 176400 Hz
Channels: 2
Bits per sample: 1
Bitrate: 5645 kbps
Codec: DSD64


Thanks to PS³SACD!
Uncompressed SACD ISO size > 2,78 GB
>