Tags
Language
Tags

Coleman Hawkins - The Hawk Flies High (1957) [MFSL 2006] PS3 ISO + DSD64 + Hi-Res FLAC

Posted By: HDAtall
Coleman Hawkins - The Hawk Flies High (1957) [MFSL 2006] PS3 ISO + DSD64 + Hi-Res FLAC

Coleman Hawkins - The Hawk Flies High (1957) [MFSL 2006]
PS3 Rip | SACD ISO | DSD64 2.0 > 1-bit/2.8224 MHz | 38:58 minutes | Scans included | 617 MB
or DSD64 2.0 (from SACD-ISO to Tracks.dsf) > 1-bit/2.8224 MHz | Full Scans included | 585 MB
or FLAC (carefully converted & encoded to tracks) 24bit/96 kHz | Full Scans included | 454 MB
Mobile Fidelity Sound Lab # UDSACD 2030 Monoural

The Hawk Flies High is a 1957 album by jazz tenor saxophonist Coleman Hawkins. Apart from Barry Galbraith and Jo Jones on guitar and drums, the line-up of his accompanying sextet had a bebop background, namely J.J. Johnson on trombone, Idrees Sulieman on trumpet, pianist Hank Jones, and Oscar Pettiford on bass.

Coleman Hawkins' 1957 session for Riverside, aside from an oral documentary record in a short-lived series, was his only recording for the label under his name. Yet producer Orrin Keepnews had the good sense to invite the legendary tenor saxophonist to pick his own musicians, and Hawkins surprised him by asking for young boppers J.J. Johnson and Idrees Sulieman in addition to the potent rhythm section of Hank Jones, Oscar Pettiford, Barry Galbraith, and Jo Jones. The two days of sessions produced a number of strong performances, with Hawkins still very much at the top of his game, while both Johnson and Sulieman catch fire as well. Even though most of the focus was on new material contributed by the participants, the musicians quickly adapted to the unfamiliar music, especially the leader's old-fashioned swinger "Sancticity" (which sounds like it could have been part of Count Basie's repertoire) and the pianist's tightly woven bop vehicle "Chant." Hawkins was one of the great ballad interpreters, and his majestic performance of the standard "Laura" is no exception.

Tracklist:

01. Chant
02. Juicy Fruit
03. Think Deep
04. Laura
05. Blue Lights
06. Sancticity

Personnel
Coleman Hawkins - tenor sax
J.J. Johnson - trombone
Idrees Sulieman - trumpet
Hank Jones - piano
Barry Galbraith - guitar
Oscar Pettiford - bass
Jo Jones - drums

Recordedon March 12 and 15, 1957 at Reeves Sound Studios, NYC.
Mastered by Shawn R. Britton at Mobile Fidelity Sound Lab, CA.

foobar2000 1.6.11 / Dynamic Range Meter 1.1.1

––––––––––––––––––––––––––––––––––––––––
Analyzed: COLEMAN HAWKINS / The Hawk Flies High
––––––––––––––––––––––––––––––––––––––––

DR Peak RMS Duration Track
––––––––––––––––––––––––––––––––––––––––
DR14 -4.48 dB -22.49 dB 5:03 01-CHANT
DR16 -4.45 dB -22.80 dB 11:13 02-JUICY FRUIT
DR14 -4.61 dB -21.48 dB 3:21 03-THINK DEEP
DR15 -5.44 dB -23.76 dB 4:30 04-LAURA
DR15 -4.22 dB -21.67 dB 5:41 05-BLUE LIGHTS
DR15 -4.92 dB -21.97 dB 9:09 06-SANCTICITY
––––––––––––––––––––––––––––––––––––––––

Number of tracks: 6
Official DR value: DR15

Samplerate: 2822400 Hz / PCM Samplerate: 176400 Hz
Channels: 2
Bits per sample: 24
Bitrate: 5645 kbps
Codec: DSD64


Thanks to PS³SACD!
Uncompressed SACD ISO size > 1,57 GB
>