Tags
Language
Tags

Ella Fitzgerald - Clap Hands, Here Comes Charlie (1961) [Analogue Productions 2012] PS3 ISO + DSD64 + Hi-Res FLAC

Posted By: HDAtall
Ella Fitzgerald - Clap Hands, Here Comes Charlie (1961) [Analogue Productions 2012] PS3 ISO + DSD64 + Hi-Res FLAC

Ella Fitzgerald - Clap Hands, Here Comes Charlie! (1961) [APO Remaster 2012]
PS3 Rip | SACD ISO | DSD64 2.0 > 1-bit/2.8224 MHz | 50:07 minutes | Basic Scans | 1,47 GB
or DSD64 2.0 (from SACD-ISO to Tracks.dsf) > 1-bit/2.8224 MHz | Basic Scans included | 1,28 GB
or FLAC (carefully converted & encoded to tracks) 24bit/48 kHz | Basic Scans included | 486 GB

This early '60s studio session captures Ella Fitzgerald moving toward the smaller, more pointedly jazz-inflected ensembles that would shape her career in her final decades. Accompanied by quartet led by Lou Levy, the intimate setting, superb musicianship and stellar recording make it a favorite among jazz-oriented audiophiles. Not to be missed!

Ella Fitzgerald recorded these numbers from the heyday of swing, played and sung time and time again in ballrooms or on the radio, in completely new and personal interpretations. The 1961 album offers absolutely top notch musicality, perfect recording quality and superb accompaniment by a small ensemble with room for improvisations. An homage to one of the most successful periods in the 100 year history of jazz, this album provides a wonderful opportunity to discover something new in these chestnuts. Pianist Lou Levy leads the ensemble which includes Herb Ellis on guitar.

Tracklist:

01. A Night In Tunisia
02. You're My Thrill
03. My Reverie
04. Stella My Starlight
05. 'Round Midnite
06. Jersey Bounce
07. Signing Off
08. Cry Me A River
09. This Year's Kisses
10. Good Morning Heartache
11. (I Was) Born To Be Blue
12. Clap Hands, Here Comes Charlie!
13. Spring Can Really Hang You Up The Most
14. Music Goes 'Round And 'Round

Personnel
Ella Fitzgerald - vocals
Lou Levy - piano
Herb Ellis - guitar
Joe Mondragon - bass
Stan Levey - drums

Recorded in Los Angeles, CA, June 22-24, 1961.
Mastered for this SACD by George Marino at Sterling Sound.

foobar2000 1.6.6 / Dynamic Range Meter 1.1.1

––––––––––––––––––––––––––––––––––––––––
Analyzed: Ella Fitzgerald / Clap Hands Here Come Charlie
––––––––––––––––––––––––––––––––––––––––

DR Peak RMS Duration Track
––––––––––––––––––––––––––––––––––––––––
DR11 -7.26 dB -21.05 dB 4:08 01-A Night In Tunisia
DR10 -10.10 dB -26.95 dB 3:37 02-You're My Thrill
DR11 -7.20 dB -21.70 dB 3:17 03-My Reverie
DR11 -6.03 dB -21.28 dB 3:18 04-Stella My Starlight
DR11 -10.88 dB -26.19 dB 3:27 05-'Round Midnite
DR12 -6.88 dB -21.00 dB 3:33 06-Jersey Bounce
DR11 -9.90 dB -25.11 dB 3:46 07-Signing Off
DR10 -7.50 dB -20.49 dB 4:14 08-Cry Me A River
DR11 -7.63 dB -22.29 dB 2:17 09-This Year's Kisses
DR10 -8.83 dB -23.10 dB 4:19 10-Good Morning Heartache
DR11 -7.83 dB -22.81 dB 2:41 11-(I Was) Born To Be Blue
DR11 -6.43 dB -20.79 dB 2:43 12-Clap Hands, Here Comes Charlie!
DR11 -8.75 dB -23.33 dB 6:14 13-Spring Can Really Hang You Up The Most
DR10 -7.80 dB -21.06 dB 2:31 14-Music Goes 'Round And 'Round
––––––––––––––––––––––––––––––––––––––––

Number of tracks: 14
Official DR value: DR11

Samplerate: 2822400 Hz / PCM Samplerate: 176400 Hz
Channels: 2
Bits per sample: 1
Bitrate: 5645 kbps
Codec: DSD64


Thanks to Faunts!
Uncompressed SACD ISO size > 2,02 GB
>