Tags
Language
Tags

Ella Fitzgerald - Let No Man Write My Epitaph (1960) [Analogue Productions 2014] SACD ISO + DSD64 + Hi-Res FLAC

Posted By: HDAtall
Ella Fitzgerald - Let No Man Write My Epitaph (1960) [Analogue Productions 2014] SACD ISO + DSD64 + Hi-Res FLAC

Ella Fitzgerald - Let No Man Write My Epitaph (1960) [APO Remaster 2014]
SACD Rip | SACD ISO | DSD64 2.0 > 1-bit/2.8224 MHz | 42:41 minutes | Front/Rear Covers | 1,25 GB
or DSD64 2.0 (from SACD-ISO to Tracks.dsf) > 1-bit/2.8224 MHz | Front/Rear Covers | 1,08 GB
or FLAC (carefully converted & encoded to tracks) 24bit/48 kHz | Front/Rear Covers | 486 MB

Let No Man Write My Epitaph was a 1960 Hollywood movie featuring Fitzgerald. The album hits at a depth of emotional understanding that critics often complained was missing in Ella's reading of jazz lyrics, and once again establishes her as one of the supreme interpreters of the Great American Songbook. Considered one of Ella's greatest recordings, she's backed on this 1960 release by pianist Paul Smith.

This album is a rare gem, a 1960 duo session featuring Ella Fitzgerald singing classic ballads, which she performed in the film Let No Man Write My Epitaph, with pianist Paul Smith as her sole accompanist. Unfortunately, this audiophile LP reissue by Classic omits seven of the 13 selections heard on the original record in order to release it as a pair of one-sided 12" 45-rpm discs. While the fidelity is superb, it seems like it would have been more intelligent to utilize both sides of each disc or the regular 33-rpm speed in order to include all of this valuable music. In any case, Ella's gift for capturing the essence of each melody is matched by Smith's flawless backing for her, especially in her powerful interpretation of "Angel Eyes" and the loping "One for My Baby (And One for the Road)." There's no doubt that the missing songs, which include "I Hadn't Anyone Till You," "Who's Sorry Now," and "I'm Getting Sentimental Over You," are every bit as good as the tracks on this abbreviated reissue.

Tracklist:

01. Black Coffee
02. Angel Eyes
03. I Cried For You
04. I Can't Give You Anything But Love, Baby
05. Then You've Never Been Blue
06. I Hadn't Anyone Till You
07. My Melancholy Baby
08. Misty
09. September Song
10. One For My Baby (And One More For The Road)
11. Who's Sorry Now?
12. I'm Getting Sentimental Over You
13. Reach For Tomorrow

Personnel
Ella Fitzgerald - vocals
Paul Smith - piano

Recorded on April 14–19, 1960 at United Western Recorders, Hollywood, Los Angeles.
Mastered for this SACD by George Marino at Sterling Sound.

foobar2000 1.6.6 / Dynamic Range Meter 1.1.1

––––––––––––––––––––––––––––––––––––––––
Analyzed: Ella Fitzgerald / Let No Man Write My Epitaph
––––––––––––––––––––––––––––––––––––––––

DR Peak RMS Duration Track
––––––––––––––––––––––––––––––––––––––––
DR11 -6.23 dB -21.46 dB 3:31 01-Black Coffee
DR11 -7.32 dB -23.20 dB 3:30 02-Angel Eyes
DR12 -8.12 dB -23.66 dB 3:30 03-I Cried For You
DR11 -7.74 dB -23.11 dB 3:31 04-I Can't Give You Anything But Love, Baby
DR11 -8.50 dB -23.45 dB 3:13 05-Then You've Never Been Blue
DR11 -8.47 dB -23.33 dB 2:52 06-I Hadn't Anyone Till You
DR10 -8.09 dB -22.53 dB 3:00 07-My Melancholy Baby
DR12 -7.67 dB -22.75 dB 2:55 08-Misty
DR10 -10.09 dB -24.12 dB 3:43 09-September Song
DR12 -6.74 dB -22.62 dB 4:21 10-One For My Baby (And One More For The Road)
DR11 -7.46 dB -22.13 dB 3:29 11-Who's Sorry Now?
DR10 -9.79 dB -23.20 dB 2:39 12-I'm Getting Sentimental Over You
DR10 -8.49 dB -22.85 dB 2:28 13-Reach For Tomorrow
––––––––––––––––––––––––––––––––––––––––

Number of tracks: 13
Official DR value: DR11

Samplerate: 2822400 Hz / PCM Samplerate: 176400 Hz
Channels: 2
Bits per sample: 1
Bitrate: 5645 kbps
Codec: DSD64


Thanks to jazzyman!
Uncompressed SACD ISO size > 1,71 GB
>