Jimi Hendrix - Axis: Bold As Love - (1967) - Vinyl - {German Box Set LP 2 of 11} 24-Bit/96kHz + 16-Bit/44kHz

Posted By: vinylhound
Jimi Hendrix - Axis: Bold As Love - (1967) - Vinyl - {German Box Set LP 2 of 11} 24-Bit/96kHz + 16-Bit/44kHz

Jimi Hendrix - Axis: Bold As Love (1967)
vinyl rip in 24/96 & 16/44.1 | 822 MB & 224 MB | FLAC | no cue or log (vinyl)
DR Analysis | FSonic & FF | Full LP Artwork | German Box Set LP 2 of 11
Genre: Rock | Polydor Records ~ 2625 038

This box set was released in Germany to commemorate the tenth anniversary of the death of Jimi Hendrix. It contains the European versions of "Are You Experienced", "Axis: Bold As Love", "Electric Ladyland", "Band Of Gypsys", "Isle Of Wight", "The Cry Of Love", "In The West", "War Heroes", "Loose Ends", "Midnight Lightning", & "Crash Landing" plus a 12" single of "Gloria" b/w "Hey Joe". Part 2 of 11 includes "Axis: Bold As Love". Axis: Bold as Love is the second studio album by Jimi Hendrix. Under pressure from their record company to follow-up the successful debut of their May 1967 album Are You Experienced, Axis: Bold as Love was released on Track Records in the UK in December 1967. It reached #5 in the UK and later #3 in the US. The album was recorded to fulfill the band's contract, which stated that they must produce two albums in 1967. Even so, it was not released in the USA until 1968 due to fears that it might disturb the sales of the first album. Bassist Noel Redding has noted that this was his favourite of the three Experience albums. He plays eight string bass on some tracks. Just before the album's completion, Hendrix left the master tapes of side 1 in a taxi. They were never found again, and thus the A-side had to be mixed again quickly.

Jimi Hendrix - Axis: Bold As Love - (1967) - Vinyl - {German Box Set LP 2 of 11} 24-Bit/96kHz + 16-Bit/44kHz


Track Listing

Side 1

1. EXP
2. Up From The Skies
3. Spanish Castle Magic
4. Wait Until Tomorrow
5. Ain't No Telling
6. Little Wing
7. If Six Was Nine

Side 2

1. You've Got Me Floating
2. Castles Made Of Sand
3. She's So Fine
4. One Rainy Wish
5. Little Miss Lover
6. Bold As Love


Musicians:

Jimi Hendrix: guitar, vocals, piano, recorder, voice of "Mr. Paul Caruso" on "EXP"
Mitch Mitchell: drums, glockenspiel on "Little Wing", backing vocals, "interviewer" on "EXP"
Noel Redding: bass guitar, 8 string bass, backing vocals, foot stamping on "If 6 Was 9", lead vocals on "She's So Fine".
Gary Leeds: foot stamping on "If 6 Was 9"
Graham Nash: foot stamping on "If 6 Was 9"
Michael Jeffery: foot stamping on "If 6 Was 9"
Trevor Burton: back-up vocals on "You Got Me Floatin'"
Roy Wood: back-up vocals on "You Got Me Floatin'"
Chas Chandler: foot stamping on "If 6 Was 9"



Technics SL-1200MK2 Turntable
Shure V15VxMR Cartridge
LP Gear SHVN5xMR Super Analogue Stylus
Sonic Bliss Audiophile Turntable Mat
Custom built, all tube phono stage
Creative 0404 USB @ 24 bit / 96khz
Adobe Audition 3.0 for recording software
JBL LSR series studio monitors / subwoofer for playback listening
iZotope RX Advanced 2.02 for any cleaning needed (all done manually)
Adobe Photoshop for scans
mp3tag 2.49 for file tagging
Easy CD-DA Extractor Ultimate 10 v2011.3 for converting files



––––––––––––––––––––––––––––––––––––––––
Analyzed: Jimi Hendrix / Axis: Bold As Love
––––––––––––––––––––––––––––––––––––––––

DR Peak RMS Duration Track
––––––––––––––––––––––––––––––––––––––––
DR10 -1.35 dB -18.13 dB 1:54 01-EXP
DR13 -0.94 dB -16.98 dB 2:58 02-Up From The Skies
DR11 -0.25 dB -13.09 dB 3:04 03-Spanish Castle Magic
DR11 -0.09 dB -14.96 dB 3:01 04-Wait Until Tomorrow
DR11 -0.54 dB -14.12 dB 1:48 05-Ain't No Telling
DR9 -0.05 dB -13.29 dB 2:26 06-Little Wing
DR10 -1.76 dB -14.94 dB 5:39 07-If Six Was Nine
DR11 -0.05 dB -14.87 dB 2:42 08-You've Got Me Floating
DR12 -3.71 dB -19.40 dB 2:45 09-Castles Made Of Sand
DR12 -0.05 dB -14.12 dB 2:39 10-She's So Fine
DR13 -1.24 dB -17.66 dB 3:40 11-One Rainy Wish
DR11 -1.23 dB -15.26 dB 2:20 12-Little Miss Lover
DR11 -1.81 dB -16.10 dB 4:08 13-Bold As Love
––––––––––––––––––––––––––––––––––––––––

Number of tracks: 13
Official DR value: DR11

Samplerate: 96000 Hz
Channels: 2
Bits per sample: 24
Bitrate: 2883 kbps
Codec: FLAC

Jimi Hendrix - Axis: Bold As Love - (1967) - Vinyl - {German Box Set LP 2 of 11} 24-Bit/96kHz + 16-Bit/44kHz


The files are interchangeable!!!

Please enjoy hearing Axis: Bold As Love as it should be heard on vinyl!!!
Download

FileSonic

FileFactory

Password

vinyl