Tags
Language
Tags
February 2024
Su Mo Tu We Th Fr Sa
28 29 30 31 1 2 3
4 5 6 7 8 9 10
11 12 13 14 15 16 17
18 19 20 21 22 23 24
25 26 27 28 29 1 2
Attention❗ To save your time, in order to download anything on this site, you must be registered 👉 HERE. If you do not have a registration yet, it is better to do it right away. ✌

( • )( • ) ( ͡⚆ ͜ʖ ͡⚆ ) (‿ˠ‿)
SpicyMags.xyz

Karl Richter, Munchener Bach-Orchester - JS Bach: 6 Brandenburg Concertos (1968) [Japan 2020] SACD ISO + DSD64 + Hi-Res FLAC

Posted By: HDAtall
Karl Richter, Munchener Bach-Orchester - JS Bach: 6 Brandenburg Concertos (1968) [Japan 2020] SACD ISO + DSD64 + Hi-Res FLAC

Karl Richter, Münchener Bach-Orchester - J.S. Bach: 6 Brandenburg Concertos (1968) [Japan 2020]
SACD Rip | 2x SACD ISO | DSD64 2.0 > 1-bit/2.8224 MHz | 95:33 minutes | Front Cover | 2,63 GB
or DSD64 2.0 Stereo (from SACD-ISO to Tracks.dsf) > 1-bit/2.8224 MHz | Front Cover | 2,38 GB
or FLAC Stereo (carefully converted & encoded to tracks) 24bit/96 kHz | Front Cover | 2,15 GB

Karl Richter was regarded as one of the great Bach conductors of the twentieth century, noted for solid regularity in rhythms and a serious approach to the music, though he was not given to following the changing pronouncements of musicologists concerning historical accuracy in performance. He organized the Munich Bach Choir in 1951, and in 1953 added to it the Munich Bach Orchestra. His performances naturally centered on Bach and under Richter his musicians and singers became one of the most renowned organizations specializing in the music of the great German master and his era. This recording of the Six Brandenburg Concertos have been recorded in 1967.

Tracklist

DISC 1:
01. Brandenburg Concerto No.1 in F major, BWV1046: I. Without Tempo Indication
02. Brandenburg Concerto No.1 in F major, BWV1046: II. Adagio
03. Brandenburg Concerto No.1 in F major, BWV1046: III. Allegro
04. Brandenburg Concerto No.1 in F major, BWV1046: IV. Menuet - Polonaise - Menuet
05. Brandenburg Concerto No.2 in F major, BWV 1047: I. Without Tempo Indication
06. Brandenburg Concerto No.2 in F major, BWV 1047: II. Andante
07. Brandenburg Concerto No.2 in F major, BWV 1047: III. Allegro assai
08. Brandenburg Concerto No.3 in G major, BWV 1048: I. Without Tempo Indication
09. Brandenburg Concerto No.3 in G major, BWV 1048: II. Adagio
10. Brandenburg Concerto No.3 in G major, BWV 1048: III. Allegro

DISC 2:
01. Brandenburg Concerto No.4 in G major, BWV 1049: I. Allegro
02. Brandenburg Concerto No.4 in G major, BWV 1049: II. Andante
03. Brandenburg Concerto No.4 in G major, BWV 1049: III. Presto
04. Brandenburg Concerto No.5 in D major, BWV 1050: I. Allegro
05. Brandenburg Concerto No.5 in D major, BWV 1050: II. Affettuoso
06. Brandenburg Concerto No.5 in D major, BWV 1050: III. Allegro
07. Brandenburg Concerto No.6 in B flat major, BWV 1051: I. Without Tempo Indication
08. Brandenburg Concerto No.6 in B flat major, BWV 1051: II. Adagio ma non tanto
09. Brandenburg Concerto No.6 in B flat major, BWV 1051: III. Allegro

Produced by Rainer Brock. Balance Engineer: Klaus Scheibe.
Recorded on January 9-15 & 19-25, 1967 at College for Music and Theater, München.
Re-Mastering Engineer: Masaya Higashino (JVC Mastering Center Adaikanyama Studio).
Esoteric Japan # ESSA-90221~2

foobar2000 1.6.11 / Dynamic Range Meter 1.1.1

––––––––––––––––––––––––––––––––––––––––
Analyzed: Karl Richter, Munchener Bach-Orchester / J.S.Bach: 6 Brandenburg Concertos
––––––––––––––––––––––––––––––––––––––––

DR Peak RMS Duration Track
––––––––––––––––––––––––––––––––––––––––
DR12 -5.80 dB -21.03 dB 3:41 01-1. (Allegro) [Brandenburg Concerto No.1 in F major, BWV 1046]
DR13 -7.58 dB -23.83 dB 7:23 01-1. Allegro [Brandenburg Concerto No.4 in G major, BWV 1049]
DR12 -8.17 dB -25.46 dB 3:46 02-2. Adagio [Brandenburg Concerto No.1 in F major, BWV 1046]
DR12 -6.81 dB -22.27 dB 3:54 02-2. Andante [Brandenburg Concerto No.4 in G major, BWV 1049]
DR12 -6.20 dB -22.37 dB 4:22 03-3. Allegro [Brandenburg Concerto No.1 in F major, BWV 1046]
DR12 -5.92 dB -21.89 dB 4:53 03-3. Presto [Brandenburg Concerto No.4 in G major, BWV 1049]
DR14 -5.90 dB -24.81 dB 10:00 04-1. Allegro [Brandenburg Concerto No.5 in D major, BWV 1050]
DR12 -5.75 dB -21.54 dB 7:29 04-4. Menuet - Polonaise - Menuet [Brandenburg Concerto No.1 in F major, BWV 1046]
DR12 -5.86 dB -21.17 dB 4:47 05-1. (Allegro) [Brandenburg Concerto No.2 in F major, BWV 1047]
DR13 -9.83 dB -27.25 dB 5:06 05-2. Affettuoso [Brandenburg Concerto No.5 in D major, BWV 1050]
DR11 -13.36 dB -27.57 dB 3:45 06-2. Andante [Brandenburg Concerto No.2 in F major, BWV 1047]
DR13 -6.49 dB -23.78 dB 5:23 06-3. Allegro [Brandenburg Concerto No.5 in D major, BWV 1050]
DR13 -7.36 dB -24.59 dB 6:18 07-1. (Allegro) [Brandenburg Concerto No.6 in B flat major, BWV 1051]
DR12 -5.90 dB -20.90 dB 2:37 07-3. Allegro assai [Brandenburg Concerto No.2 in F major, BWV 1047]
DR12 -5.88 dB -22.24 dB 5:24 08-1. (Allegro) [Brandenburg Concerto No.3 in G major, BWV 1048]
DR13 -9.53 dB -26.82 dB 5:00 08-2. Adagio ma non tanto [Brandenburg Concerto No.6 in B flat major, BWV 1051]
DR11 -18.36 dB -31.39 dB 0:52 09-2. Adagio [Brandenburg Concerto No.3 in G major, BWV 1048]
DR13 -7.70 dB -24.28 dB 5:50 09-3. Allegro [Brandenburg Concerto No.6 in B flat major, BWV 1051]
DR14 -6.55 dB -23.43 dB 5:00 10-3. Allegro [Brandenburg Concerto No.3 in G major, BWV 1048]
––––––––––––––––––––––––––––––––––––––––

Number of tracks: 19
Official DR value: DR13

Samplerate: 2822400 Hz / PCM Samplerate: 176400 Hz
Channels: 2
Bits per sample: 1
Bitrate: 5645 kbps
Codec: DSD64


Thanks to ManWhoCan!
Uncompressed SACD ISO size > 1,68 + 2,16 GB
>