Miroslav Ilic - Sreli Smo Se Bilo Je Davno (1979) RTB LP 1512

Posted By: Ljubo44
Miroslav Ilic - Sreli Smo Se Bilo Je Davno (1979) RTB LP 1512

Miroslav Ilic - Sreli Smo Se Bilo Je Davno
Vinyl rip in 24bit / 96kHz | FLAC+artwork 600dpi | 937 & 352 MB
Folk/YU | 1979 | RTB LP 1512 | filepost, hotfile

3-rd LP with ansambl Dragan Aleksandrić


Miroslav Ilic - Sreli Smo Se Bilo Je Davno (1979) RTB LP 1512


Tracks:
A1 - Sreli Smo Se Bilo Je Davno
(Rade Bogićević)
A2 - Jedna Mala, Slatka Mala
(M. Popović Zahar)
A3 - Koliki Je Ovaj Svet
(P. Vuković)
A4 - Hej, Mladosti
(B. Spasojević/S. Gajić - S. Gajić)
A5 - Ona Je Majka Moga Sina
(P. Vuković)
B1 - Luckasta Si Ti
(D. Aleksandrić - D. Todorović)
B2 - Oj, Moravo, Tija Reko
(O. Pjevović)
B3 - Polomicu Case Od Kristala
(S. Gajić)
B4 - Secas Li Se Andjelino
(M. Popović Zahar)
B5 - Moravsko Predvecerje
(O. Pjevović)

℗ 1979 PGP RTB
LP by: Luka2003
24-bit/96kHz transfer by Ljubo44
Januar 26, ‎2013
Vinyl condition: 5+ (mint)
Runout A: LP 1512 A 20379 RG DPP
Runout B: LP 1512 B 22379
––––––––––––––––––––––––––––––––––––––––
Analyzed: Miroslav Ilic / Sreli Smo Se Bilo Je Davno
––––––––––––––––––––––––––––––––––––––––

DR Peak RMS Duration Track
––––––––––––––––––––––––––––––––––––––––
DR9 -0.22 dB -11.56 dB 4:46 01-Sreli Smo Se Bilo Je Davno
DR10 -0.50 dB -12.93 dB 4:42 02-Jedna Mala, Slatka Mala
DR10 -0.34 dB -12.03 dB 2:33 03-Koliki Je Ovaj Svet
DR10 -0.29 dB -12.52 dB 3:49 04-Hej, Mladosti
DR10 -0.58 dB -13.41 dB 4:38 05-Ona Je Majka Moga Sina
DR10 -0.24 dB -12.68 dB 3:34 06-Luckasta Si Ti
DR11 -0.22 dB -12.18 dB 2:57 07-Oj, Moravo, Tija Reko
DR11 -0.25 dB -12.89 dB 3:21 08-Polomicu Case Od Kristala
DR10 -0.19 dB -11.79 dB 4:54 09-Secas Li Se Andjelino
DR10 -0.15 dB -12.23 dB 5:05 10-Moravsko Predvecerje
––––––––––––––––––––––––––––––––––––––––

Number of tracks: 10
Official DR value: DR10

Samplerate: 96000 Hz
Channels: 2
Bits per sample: 24
Bitrate: 2919 kbps
Codec: FLAC
================================================================================

RCM Record master 1
Technics SL 1210 DD TT
Ortofon LMB 12 Cartrige
Denon DRA-565 RD Preamp
EDIROL FA 66 Fire Wire Audio Interface
WaveLab 6.1 recording software
Izotope RX 2.10 for resampling and dither (noise shaping: light, Dither amount: none)
foobar2000 for FLAC conversion

Click Repair - Manual
24/96 | FLAC | DR10 | Scan 600 dpi | 2% recovery volume

filepost
2496-part1 | 2496-part2 | 2496-part3

hotfile
2496-part1 | 2496-part2 | 2496-part3

16/44 | FLAC | DR10 | Scan 600 dpi | 2% recovery volume

filepost
1644

hotfile
1644

Pass: ljubo