Tags
Language
Tags
February 2024
Su Mo Tu We Th Fr Sa
28 29 30 31 1 2 3
4 5 6 7 8 9 10
11 12 13 14 15 16 17
18 19 20 21 22 23 24
25 26 27 28 29 1 2
Attention❗ To save your time, in order to download anything on this site, you must be registered 👉 HERE. If you do not have a registration yet, it is better to do it right away. ✌

( • )( • ) ( ͡⚆ ͜ʖ ͡⚆ ) (‿ˠ‿)
SpicyMags.xyz

Oscar's Motet Choir - Cantate Domino (1976) [Reissue 2003] SACD ISO + DSD64 + Hi-Res FLAC

Posted By: HDAtall
Oscar's Motet Choir - Cantate Domino (1976) [Reissue 2003] SACD ISO + DSD64 + Hi-Res FLAC

Oscar's Motet Choir, Torsten Nilsson, Marianne Mellnäs, Alf Linder - Cantate Domino (1976) [Reissue 2003]
SACD Rip | SACD ISO | DST64 2.0 > 1-bit/2.8224 MHz | 45:18 minutes | PDF Booklet | 767 MB
or DSD64 Stereo (from SACD-ISO to Tracks.dsf) > 1-bit/2.8224 MHz | PDF Booklet | 1,1 GB
or FLAC (carefully converted & encoded to tracks) 24bit/96 kHz | PDF Booklet | 1,03 GB

Cantate Domino, recorded by legendary sound engineer Bertil Alving in 1976, is widely regarded as one of the greatest audiophile masterpieces ever recorded. Opening with Enrico Bossi's "Cantate Domino" for choir, organ, trumpets and trombones, the choral album includes a number of Swedish folk songs as well as pieces by Handel, Otto Olsson, and others. The famous reference record is now made even better with this audiophile SACD release.

This collection of Christmas-related sacred music for chorus, brass and organ from Oscar's Motet Choir has long been considered an audiophile reference, famous for its incredible sound quality. Recorded simply in a Stockholm church in 1976 to a Revox reel-to-reel machine using two Pearl microphones, the album showcases the performances of soprano Marianne Mellnäs and organist Alf Linder and includes works by Enrico Bossi, Handel, Otto Olsson, Adolphe Adam along with psalms and Swedish folk songs.

Tracklist:

01. Bossi: Cantate Domino
02. Walther: Organ Concerto (after Gentili) in A major, LV 130 I. Allegro
03. Walther: Organ Concerto (after Gentili) in A major, LV 130 II. Adagio
04. Walther: Organ Concerto (after Gentili) in A major, LV 130 III. Allegro
05. Olsson: Advent
06. Handel: Judas Maccabaeus, HWV 63: See the conqu'ring hero comes! (Dotter Sion, frojda dig)
07. Vogler: Hosianna, Davids son (Hosanna, Son of David)
08. Frojda dig, du Kristi brud (O bride of Christ, Rejoice)
09. Lullaby (Korean Folk Song)
10. Il est ne le divin enfant (French Carol)
11. Adam: O Helga natt (Cantique de Noel, O Holy Night)
12. Den signade dag (O day full of grace)
13. Gruber: Stille Nacht (Silent Night)
14. Reger: Schlichte Weisen, Op. 76: No. 52. Mariae Wiegenlied (Mary's Lullaby)
15. Olsson: 12 Organ Pieces on Chorale Themes, Op. 36: No. 2. Jul
16. Zither Carol (Chech Folk Song)
17. Irving Berlin: White Christmas

Personnel
Oscar's Motet Choir
Chorus Master: Torsten Nilsson
Marianne Mellnäs - soprano vocals
Alf Linder - organ

Recorded from January 23 to 25 and April 29, 1976 at Motettenchorus Oscar Church, Stockholm, Sweden.
Transferred from original analogue tapes. Mastered by Torbjörn Samuelsson.
Proprius # PRSACD 7762

foobar2000 2.0 / Dynamic Range Meter 1.1.1

––––––––––––––––––––––––––––––––––––––––
Analyzed: Oscar's Motet Choir, Torsten Nilsson, Marianne Mellnäs, Alf Linder / Cantate Domino
––––––––––––––––––––––––––––––––––––––––

DR Peak RMS Duration Track
––––––––––––––––––––––––––––––––––––––––
DR10 -6.52 dB -21.89 dB 5:35 01-Bossi: Cantate Domino
DR12 -13.77 dB -28.79 dB 2:48 02-Walther: Organ Concerto (after Gentili) in A major, LV 130 I. Allegro
DR10 -15.84 dB -27.73 dB 0:57 03-Walther: Organ Concerto (after Gentili) in A major, LV 130 II. Adagio
DR11 -12.95 dB -28.32 dB 1:41 04-Walther: Organ Concerto (after Gentili) in A major, LV 130 III. Allegro
DR10 -5.77 dB -21.24 dB 3:37 05-Olsson: Advent
DR12 -8.22 dB -24.18 dB 1:39 06-Handel: Judas Maccabaeus, HWV 63: See the conqu'ring hero comes! (Dotter Sion, frojda dig)
DR11 -6.44 dB -22.17 dB 2:30 07-Vogler: Hosianna, Davids son (Hosanna, Son of David)
DR12 -9.72 dB -25.64 dB 1:42 08-Frojda dig, du Kristi brud (O bride of Christ, Rejoice)
DR13 -14.19 dB -30.43 dB 1:09 09-Lullaby (Korean Folk Song)
DR13 -8.33 dB -26.07 dB 1:51 10-Il est ne le divin enfant (French Carol)
DR11 -6.04 dB -23.08 dB 4:12 11-Adam: O Helga natt (Cantique de Noel, O Holy Night)
DR12 -9.54 dB -28.48 dB 1:10 12-Den signade dag (O day full of grace)
DR13 -6.36 dB -26.18 dB 3:26 13-Gruber: Stille Nacht (Silent Night)
DR12 -8.15 dB -25.08 dB 3:13 14-Reger: Schlichte Weisen, Op. 76: No. 52. Mariae Wiegenlied (Mary's Lullaby)
DR10 -6.70 dB -21.30 dB 4:57 15-Olsson: 12 Organ Pieces on Chorale Themes, Op. 36: No. 2. Jul
DR15 -7.91 dB -27.98 dB 1:59 16-Zither Carol (Chech Folk Song)
DR13 -8.21 dB -26.08 dB 2:52 17-Irving Berlin: White Christmas
––––––––––––––––––––––––––––––––––––––––

Number of tracks: 17
Official DR value: DR12

Samplerate: 2822400 Hz / PCM Samplerate: 176400 Hz
Channels: 2
Bits per sample: 1
Bitrate: 5645 kbps
Codec: DST64


Thanks to ManWhoCan!
Uncompressed SACD ISO size > 738 MB
>