Bosnian Folk Songs and Dances - (1971) Jugoton LPY-V-850

Posted By: Ljubo44
Bosnian Folk Songs and Dances - (1971) Jugoton LPY-V-850

Bosnian Folk Songs and Dances
Vinyl rip in 24bit / 96kHz | FLAC+artwork 300dpi | 881 & 278 MB
Folk/YU | 1971 | Jugoton LPY-V-850 | filepost, uploaded, hotfile

Tamburaški orkestar RTV Sarajevo i Zagreb, Ansambli Jovice i Ratomira Petkovića, Ismeta Alajbegovića-Šerbe, Spase Beraka i duet harmonika Braće Petković


Bosnian Folk Songs and Dances - (1971) Jugoton LPY-V-850


Tracks:
A1 - Pozdrav Saljem Dragoj na Daleko
(Safet Isović i grupa pjevača)
A2 - Kraj Potoka Bistre Vode
(Beba Selimović)
A3 - U Stambolu na Bosporu
(Himzo Polovina)
A4 - Po Mjesecini Kraj Simsira
(Nada Mamula)
A5 - Evo Ovu Rumen Ruzu
(Zaim Imamović)
A6 - Po Taslidji Pala Magla
(Zarka Šećerkadić)
A7 - Gajde Kolo
(Halil Voloder, gajde)
B1 - Pokraj Grada Sarajeva
(Rade Mladenović)
B2 - Niz Olovo Sitna Kaldrmica
(Mujo Cerić i Ahmed Bešlić)
B3 - Zvijezda Tjera Mjeseca
(Mile Petrović)
B4 - Okreni se Niz Djul-Bastu
(Zehra Deović)
B5 - Vihor Ruzu Niz Polje Tjerase
(Rade Mladenović)
B6 - Alija se do Jezera Krade
(Rejhana Osmančević)
B7 - Treha Kolo
(Halil Salihanović, violina i
Ramiz Salkanović, šargija)

℗ 1959 - 1970 Jugoton
LP by: Željko Ćirković
24-bit/96kHz transfer by Ljubo44
Avgust 11, ‎2012
Vinyl condition: 5+ (mint)
Runout A: LPY-V-850A 24371 MK
Runout B: LPY-V-850B 24371 MK
foobar2000 1.2.2 / Dynamic Range Meter 1.1.1
log date: 2013-01-29 02:26:36

––––––––––––––––––––––––––––––––––––––––
Analyzed: Beba Selimovic / Pokraj Grada Sarajeva (1)
Halil Salihanovic i Ramiz Salkanovic / Pokraj Grada Sarajeva (2)
Halil Voloder / Pokraj Grada Sarajeva (3)
Himzo Polovina / Pokraj Grada Sarajeva (4)
Mile Petrovic / Pokraj Grada Sarajeva (5)
Mujo Ceric i Ahmed Beslic / Pokraj Grada Sarajeva (6)
Nada Mamula / Pokraj Grada Sarajeva (7)
Rade Mladenovic / Pokraj Grada Sarajeva (8-9)
Rejhana Osmancevic / Pokraj Grada Sarajeva (10)
Safet Isovic / Pokraj Grada Sarajeva (11)
Zaim Imamovic / Pokraj Grada Sarajeva (12)
Zarka Secerkadic / Pokraj Grada Sarajeva (13)
Zehra Deovic / Pokraj Grada Sarajeva (14)
––––––––––––––––––––––––––––––––––––––––

DR Peak RMS Duration Track
––––––––––––––––––––––––––––––––––––––––
DR9 -0.24 dB -11.99 dB 4:15 02-Kraj Potoka Bistre Vode
DR12 -1.38 dB -14.45 dB 1:45 14-Treha Kolo
DR10 -2.08 dB -14.61 dB 2:06 07-Gajde Kolo
DR10 -0.37 dB -12.16 dB 3:47 03-U Stambolu na Bosporu
DR11 -0.43 dB -14.20 dB 2:04 10-Zvijezda Tjera Mjeseca
DR9 -0.27 dB -11.77 dB 3:54 09-Niz Olovo Sitna Kaldrmica
DR8 -1.01 dB -13.60 dB 2:56 04-Po Mjesecini Kraj Simsira
DR10 -0.17 dB -12.18 dB 2:03 08-Pokraj Grada Sarajeva
DR10 -0.24 dB -12.53 dB 3:36 12-Vihor Ruzu Niz Polje Tjerase
DR9 -0.47 dB -11.56 dB 3:03 13-Alija se do Jezera Krade
DR10 -0.11 dB -11.58 dB 3:12 01-Pozdrav Saljem Dragoj na Daleko
DR10 -0.47 dB -12.72 dB 3:58 05-Evo Ovu Rumen Ruzu
DR10 -0.58 dB -12.30 dB 2:06 06-Po Taslidji Pala Magla
DR10 -0.35 dB -14.12 dB 4:08 11-Okreni se Niz Djul-Bastu
––––––––––––––––––––––––––––––––––––––––

Number of tracks: 14
Official DR value: DR10

Samplerate: 96000 Hz
Channels: 2
Bits per sample: 24
Bitrate: 2812 kbps
Codec: FLAC
================================================================================

RCM Record master 1
Technics SL 1210 DD TT
Ortofon LMB 12 Cartrige
Denon DRA-565 RD Preamp
EDIROL FA 66 Fire Wire Audio Interface
WaveLab 6.1 recording software
Izotope RX 2.10 for resampling and dither (noise shaping: light, Dither amount: none)
foobar2000 for FLAC 8 conversion

Click Repair - Manual
24/96 | FLAC | DR10 | Scan 300 dpi | 2% recovery volume

filepost
2496-part1 | 2496-part2

uploaded
2496-part1 | 2496-part2

16/44 | FLAC | DR10 | Scan 300 dpi | 2% recovery volume

filepost
1644

uploaded
1644

hotfile
1644

Pass: ljubo