Tags
Language
Tags
June 2024
Su Mo Tu We Th Fr Sa
26 27 28 29 30 31 1
2 3 4 5 6 7 8
9 10 11 12 13 14 15
16 17 18 19 20 21 22
23 24 25 26 27 28 29
30 1 2 3 4 5 6

The Rolling Stones - Black And Blue (1976) [Japanese Limited SHM-SACD 2011 # UIGY-9079] PS3 ISO + DSD64 + Hi-Res FLAC

Posted By: HDAtall
The Rolling Stones - Black And Blue (1976) [Japanese Limited SHM-SACD 2011 # UIGY-9079] PS3 ISO + DSD64 + Hi-Res FLAC

The Rolling Stones - Black And Blue (1976) [Japanese Limited SHM-SACD 2011]
PS3 Rip | SACD ISO | DSD64 2.0 > 1-bit/2.8224 MHz | 41:30 minutes | Scans included | 1,24 GB
or DSD64 2.0 (from SACD-ISO to Tracks.dsf) > 1-bit/2.8224 MHz | Full Scans included | 1,1 GB
or FLAC (carefully converted & encoded to tracks) 24bit/96 kHz | Full Scans included | 952 MB

Black and Blue is the 13th British and 15th American studio album by the band the Rolling Stones, released in April 1976. This album was the first recorded after former guitarist Mick Taylor had quit in December 1974. As he had done the previous time the Stones were between second guitarists in 1968, Keith Richards recorded the bulk of the guitar parts himself, though the album recording sessions also served as an audition for Taylor's replacement. Black and Blue showed the band blending its traditional rock and roll style with heavy influences from reggae and funk music.

The Rolling Stones recorded Black and Blue while auditioning Mick Taylor's replacement, so it's unfair to criticize it, really, for being longer on grooves and jams than songs, especially since that's what's good about it. Yes, the two songs that are undeniable highlights are "Memory Motel" and "Fool to Cry," the album's two ballads and, therefore, the two that had to be written and arranged, not knocked out in the studio; they're also the ones that don't quite make as much sense, though they still work in the context of the record. No, this is all about groove and sound, as the Stones work Ron Wood into their fabric. And the remarkable thing is, apart from "Hand of Fate" and "Crazy Mama," there's little straight-ahead rock & roll here. They play with reggae extensively, funk and disco less so, making both sound like integral parts of the Stones' lifeblood. Apart from the ballads, there might not be many memorable tunes, but there are times that you listen to the Stones just to hear them play, and this is one of them.

Tracklist:

01. Hot Stuff
02. Hand Of Fate
03. Cherry Oh Baby
04. Memory Motel
05. Hey Negrita
06. Melody
07. Fool To Cry
08. Crazy Mama

DSD transferred from analogue master tapes by Mick McKenna & Richard Whittaker at the FX Copyroom.
Universal Japan # UIGY-9079

foobar2000 1.6.16 / Dynamic Range Meter 1.1.1

––––––––––––––––––––––––––––––––––––––––
Analyzed: The Rolling Stones / Black And Blue
––––––––––––––––––––––––––––––––––––––––

DR Peak RMS Duration Track
––––––––––––––––––––––––––––––––––––––––
DR14 -4.51 dB -20.61 dB 5:22 01-Hot Stuff
DR13 -4.38 dB -19.01 dB 4:28 02-Hand Of Fate
DR15 -4.18 dB -21.30 dB 3:56 03-Cherry Oh Baby
DR13 -4.20 dB -19.76 dB 7:11 04-Memory Motel
DR15 -4.24 dB -20.51 dB 5:00 05-Hey Negrita
DR14 -4.54 dB -21.05 dB 5:50 06-Melody
DR13 -4.30 dB -20.77 dB 5:06 07-Fool To Cry
DR13 -4.09 dB -18.97 dB 4:37 08-Crazy Mama
––––––––––––––––––––––––––––––––––––––––

Number of tracks: 8
Official DR value: DR14

Samplerate: 2822400 Hz / PCM Samplerate: 176400 Hz
Channels: 2
Bits per sample: 1
Bitrate: 5645 kbps
Codec: DSD64


Thanks to PS³SACD!
Uncompressed SACD ISO size > 1,66 GB
>