Tags
Language
Tags
June 2024
Su Mo Tu We Th Fr Sa
26 27 28 29 30 31 1
2 3 4 5 6 7 8
9 10 11 12 13 14 15
16 17 18 19 20 21 22
23 24 25 26 27 28 29
30 1 2 3 4 5 6

The Rolling Stones - Dirty Work (1986) [Japanese Limited SHM-SACD 2011] PS3 ISO + DSD64 + Hi-Res FLAC

Posted By: HDAtall
The Rolling Stones - Dirty Work (1986) [Japanese Limited SHM-SACD 2011] PS3 ISO + DSD64 + Hi-Res FLAC

The Rolling Stones - Dirty Work (1986) [Japanese SHM-SACD 2011]
PS3 Rip | SACD ISO | DSD64 2.0 > 1-bit/2.8224 MHz | 39:48 minutes | Scans included | 1,22 GB
or DSD64 2.0 (from SACD-ISO to Tracks.dsf) > 1-bit/2.8224 MHz | Full Scans included | 1,06 GB
or FLAC (carefully converted & encoded to tracks) 24bit/96 kHz | Full Scans included | 965 MB

Dirty Work is the Rolling Stones' 18th British and 20th American studio album. It was released on March 24, 1986 on the Rolling Stones label by CBS Records. The album was recorded during a time of turmoil for the band, as the two principal songwriters, Richards and Jagger, had been feuding over the band's direction for most of the 1980s. Almost all of the band members had spent the previous several years working on solo albums or side projects. Other band members, including guitarist Ronnie Wood, drummer Charlie Watts, and bassist Bill Wyman, were often absent from the studio during recording sessions; it was rare that all five principal members were together at the same time. Additionally it would be the last album to feature former member and frequent contributor on piano Ian Stewart, who died shortly before the album's release.

Reuniting after three years and one solo album from Mick Jagger, the Rolling Stones attempted to settle their differences and craft a comeback with Dirty Work, but the tensions remained too great for the group. Designed as a return to their rock & roll roots after several years of vague dance experiments, Dirty Work is hampered by uneven songs and undistinguished performances, as well as a slick, lightly synthesized production that instantly dates the album to the mid-'80s. Jagger often sounds like he's saving his best work for his solo records, but a handful of songs have a spry, vigorous attack – "One Hit (To the Body)" is a classic, and "Winning Ugly" and "Had It With You" have a similar aggression. Still, most of Dirty Work sounds as forced as the cover of Bob & Earl's uptown soul obscurity "Harlem Shuffle," leaving the album as one of the group's most undistinguished efforts.

Tracklist:

01. One Hit (To The Body)
02. Fight
03. Harlem Shuffle
04. Hold Back
05. Too Rude
06. Winning Ugly
07. Back To Zero
08. Dirty Work
09. Had It With You
10. Sleep Tonight
11. Key To The Highway (Piano Instrumental)

DSD transferred from analogue master tapes by Mick McKenna & Richard Whittaker at the FX Copyroom.
Universal Japan # UIGY-9074

foobar2000 2.1 / Dynamic Range Meter 1.1.1

––––––––––––––––––––––––––––––––––––––––
Analyzed: The Rolling Stones / Dirty Work
––––––––––––––––––––––––––––––––––––––––

DR Peak RMS Duration Track
––––––––––––––––––––––––––––––––––––––––
DR12 -4.79 dB -18.96 dB 4:45 01-One Hit (To The Body)
DR12 -5.07 dB -19.00 dB 3:09 02-Fight
DR13 -4.73 dB -19.59 dB 3:24 03-Harlem Shuffle
DR12 -4.12 dB -18.17 dB 3:53 04-Hold Back
DR14 -4.27 dB -21.15 dB 3:12 05-Too Rude
DR11 -5.03 dB -19.11 dB 4:32 06-Winning Ugly
DR16 -5.04 dB -23.59 dB 3:59 07-Back To Zero
DR13 -5.40 dB -20.45 dB 3:53 08-Dirty Work
DR14 -4.90 dB -20.45 dB 3:18 09-Had It With You
DR15 -4.54 dB -22.25 dB 5:10 10-Sleep Tonight
DR12 -11.92 dB -28.56 dB 0:33 11-Key To The Highway - Piano Instrumental
––––––––––––––––––––––––––––––––––––––––

Number of tracks: 11
Official DR value: DR13

Samplerate: 2822400 Hz / PCM Samplerate: 176400 Hz
Channels: 2
Bits per sample: 1
Bitrate: 5645 kbps
Codec: DSD64


Thanks to PS³SACD!
Uncompressed SACD ISO size > 1,6 GB
>