Tags
Language
Tags
June 2024
Su Mo Tu We Th Fr Sa
26 27 28 29 30 31 1
2 3 4 5 6 7 8
9 10 11 12 13 14 15
16 17 18 19 20 21 22
23 24 25 26 27 28 29
30 1 2 3 4 5 6

The Rolling Stones - Goats Head Soup (1973) [Japanese Limited SHM-SACD 2011] PS3 ISO + DSD64 + Hi-Res FLAC

Posted By: HDAtall
The Rolling Stones - Goats Head Soup (1973) [Japanese Limited SHM-SACD 2011] PS3 ISO + DSD64 + Hi-Res FLAC

The Rolling Stones - Goats Head Soup (1973) [Japanese SHM-SACD 2011]
PS3 Rip | SACD ISO | DSD64 2.0 > 1-bit/2.8224 MHz | 46:59 minutes | Scans included | 1,47 GB
or DSD64 2.0 (from SACD-ISO to Tracks.dsf) > 1-bit/2.8224 MHz | Full Scans included | 1,29 GB
or FLAC (carefully converted & encoded to tracks) 24bit/96 kHz | Full Scans included | 1,09 GB

Goats Head Soup is the 11th British and 13th American studio album by The Rolling Stones, released in August 1973. Like its predecessor, Exile on Main St., the band composed and recorded much of it outside of the United Kingdom due to tax issues. Goats Head Soup was recorded in Jamaica, United States, and the United Kingdom, and mixed in the United Kingdom and the Netherlands. The album contained 10 tracks, all written by Mick Jagger and Keith Richards, including lead single "Angie", which went to No. 1 as a single in the United States and top 5 in the UK.

Sliding out of perhaps the greatest winning streak in rock history, the Stones slipped into decadence and rock star excess with Goats Head Soup, their sequel to Exile on Main St. This is where the Stones' image began to eclipse their accomplishments, as Mick ascended to jet-setting celebrity and Keith slowly sunk deeper into addiction, and it's possible hearing them moving in both directions on Goats Head Soup, at times in the same song. As Jagger plays the devil (or, dances with Mr. D, as he likes to say), the sex and sleaze quotient is increased, all of it underpinned by some genuinely affecting heartbreak, highlighted by "Angie." This may not be as downright funky, freaky, and fantastic as Exile, yet the extra layer of gloss brings out the enunciated lyrics, added strings, wah-wah guitars, explicit sex, and violence, making it all seem trippily decadent. If it doesn't seem like there's a surplus of classics here, all the songs work well, illustrating just how far they've traveled in their songcraft, as well as their exceptional talent as a band – they make this all sound really easy and darkly alluring, even when the sex'n'satanism seems a little silly. To top it all of, they cap off this utterly excessive album with "Star Star," a nasty Chuck Berry rip that grooves on its own mean vulgarity – its real title is "Starf*cker," if you need any clarification, and even though they got nastier (the entirety of Undercover, for instance), they never again made something this dirty or nasty. And, it never feels more at home than it does at the end of this excessive record.

Tracklist:

01. Dancing With Mr. D.
02. 100 Years Ago
03. Coming Down Again
04. Doo Doo Doo Doo Doo (Heartbreaker)
05. Angie
06. Silver Train
07. Hide Your Love
08. Winter
09. Can You Hear The Music
10. Star Star

DSD transferred from analogue master tapes by Mick McKenna & Richard Whittaker at the FX Copyroom.
Universal Japan # UIGY-9076

foobar2000 2.1 / Dynamic Range Meter 1.1.1

––––––––––––––––––––––––––––––––––––––––
Analyzed: The Rolling Stones / Goats Head Soup
––––––––––––––––––––––––––––––––––––––––

DR Peak RMS Duration Track
––––––––––––––––––––––––––––––––––––––––
DR9 -5.19 dB -15.65 dB 4:54 01-Dancing With Mr. D.
DR9 -4.21 dB -17.15 dB 4:00 02-100 Years Ago
DR10 -4.94 dB -17.87 dB 5:55 03-Coming Down Again
DR11 -4.91 dB -17.70 dB 3:27 04-Doo Doo Doo Doo Doo (Heartbreaker)
DR12 -5.31 dB -19.58 dB 4:33 05-Angie
DR10 -4.24 dB -15.95 dB 4:27 06-Silver Train
DR10 -5.22 dB -17.03 dB 4:13 07-Hide Your Love
DR10 -5.48 dB -18.20 dB 5:30 08-Winter
DR9 -5.73 dB -17.01 dB 5:34 09-Can You Hear The Music
DR9 -5.52 dB -16.08 dB 4:27 10-Star Star
––––––––––––––––––––––––––––––––––––––––

Number of tracks: 10
Official DR value: DR10

Samplerate: 2822400 Hz / PCM Samplerate: 176400 Hz
Channels: 2
Bits per sample: 1
Bitrate: 5645 kbps
Codec: DSD64


Thanks to PS³SACD!
Uncompressed SACD ISO size > 1,88 GB
>