Tags
Language
Tags
February 2023
Su Mo Tu We Th Fr Sa
29 30 31 1 2 3 4
5 6 7 8 9 10 11
12 13 14 15 16 17 18
19 20 21 22 23 24 25
26 27 28 1 2 3 4

The Rolling Stones - Let It Bleed (1969) [Japanese Limited SHM-SACD 2010 # UIGY-9021] PS3 ISO + DSD64 + Hi-Res FLAC

Posted By: HDAtall
The Rolling Stones - Let It Bleed (1969) [Japanese Limited SHM-SACD 2010 # UIGY-9021] PS3 ISO + DSD64 + Hi-Res FLAC

The Rolling Stones - Let It Bleed (1969) [Japanese SHM-SACD 2010]
PS3 Rip | SACD ISO | DSD64 2.0 > 1-bit/2.8224 MHz | 42:24 minutes | Scans included | 1,34 GB
or DSD64 2.0 (from SACD-ISO to Tracks.dsf) > 1-bit/2.8224 MHz | Full Scans included | 1,15 GB
or FLAC (carefully converted & encoded to tracks) 24bit/96 kHz | Full Scans included | 1016 MB

Let It Bleed is the eighth British and tenth American studio album by English rock band the Rolling Stones, released in December 1969 by Decca Records in the United Kingdom and London Records in the United States. Released shortly after the band's 1969 American Tour, it is the follow-up to 1968's Beggars Banquet.

Mostly recorded without Brian Jones – who died several months before its release (although he does play on two tracks) and was replaced by Mick Taylor (who also plays on just two songs) – this extends the rock and blues feel of Beggars Banquet into slightly harder-rocking, more demonically sexual territory. The Stones were never as consistent on album as their main rivals, the Beatles, and Let It Bleed suffers from some rather perfunctory tracks, like "Monkey Man" and a countrified remake of the classic "Honky Tonk Woman" (here titled "Country Honk"). Yet some of the songs are among their very best, especially "Gimme Shelter," with its shimmering guitar lines and apocalyptic lyrics; the harmonica-driven "Midnight Rambler"; the druggy party ambience of the title track; and the stunning "You Can't Always Get What You Want," which was The Stones' "Hey Jude" of sorts, with its epic structure, horns, philosophical lyrics, and swelling choral vocals. "You Got the Silver" (Keith Richards' first lead vocal) and Robert Johnson's "Love in Vain," by contrast, were as close to the roots of acoustic down-home blues as The Stones ever got.

Tracklist:

01. Gimme Shelter
02. Love In Vain
03. Country Honk
04. Live With Me
05. Let It Bleed
06. Midnight Rambler
07. You Got The Silver
08. Monkey Man
09. You Can't Always Get What You Want

Features 2002 DSD Mastering.
Mastered by Bob Ludwig at Gateway Mastering. DSD Engineer: Gus Skinas.
Universal Japan # UIGY-9021

foobar2000 1.6.10 / Dynamic Range Meter 1.1.1

––––––––––––––––––––––––––––––––––––––––
Analyzed: The Rolling Stones / Let It Bleed
––––––––––––––––––––––––––––––––––––––––

DR Peak RMS Duration Track
––––––––––––––––––––––––––––––––––––––––
DR9 -4.98 dB -16.17 dB 4:31 01-Gimme Shelter
DR9 -5.52 dB -17.80 dB 4:19 02-Love In Vain
DR13 -5.05 dB -20.98 dB 3:07 03-Country Honk
DR12 -5.47 dB -18.64 dB 3:33 04-Live With Me
DR9 -5.27 dB -15.67 dB 5:28 05-Let It Bleed
DR10 -5.73 dB -18.60 dB 6:53 06-Midnight Rambler
DR11 -4.89 dB -20.02 dB 2:50 07-You Got The Silver
DR10 -5.21 dB -17.51 dB 4:12 08-Monkey Man
DR9 -6.22 dB -18.40 dB 7:31 09-You Can't Always Get What You Want
––––––––––––––––––––––––––––––––––––––––

Number of tracks: 9
Official DR value: DR10

Samplerate: 2822400 Hz / PCM Samplerate: 176400 Hz
Channels: 2
Bits per sample: 1
Bitrate: 5645 kbps
Codec: DSD64


Thanks to PS³SACD!
Uncompressed SACD ISO size > 1,7 GB
>