Please register here if you want to download anything!

If domain in your address bar is different from the list below
PLEASE LEAVE THAT SITE IMMEDIATELY
❗IT'S A DANGEROUS FAKE❗



Spicy Magazines for Men! ;-)

Bruce Springsteen - 1986-10-13 Mountain View, CA (2019) [Official Digital Download 24/176]

Posted By: SERTiL
Bruce Springsteen - 1986-10-13 Mountain View, CA (2019) [Official Digital Download 24/176]

Bruce Springsteen - 1986-10-13 Mountain View, CA (2019)
FLAC (tracks) 24-bit/176.4 kHz | Time - 58:30 minutes | 1.85 GB
live.brucespringsteen.net, Official Digital Download | Artwork: Front Cover

Bruce’s performance at the inaugural Bridge School Benefit Concert marked his first major appearance since the end of the BIUSA tour and his first acoustic set in over a decade. An astonishing a cappella take of “You Can Look (But You Better Not Touch)” opens, followed by the debut of the stripped down “Born In The U.S.A.” Danny Federici and Nils Lofgren then join in for a sublime set that includes “Seeds,” “Darlington County,” “Mansion On The Hill,” “Fire,” “Follow That Dream” and “Hungry Heart” with Crosby, Stills, Nash and Young. $2 from each sale goes to The Bridge School. Dedicated to Elliot Roberts (1943-2019).

Tracklist:
1. You Can Look (But You Better Not Touch)
2. Born in the U.S.A.
3. Seeds
4. Darlington County
5. Mansion on the Hill
6. Fire
7. Dancing in the Dark
8. Glory Days
9. Follow That Dream
10. Hungry Heart

Personnel:
Bruce Springsteen - Lead vocal, acoustic guitars, harmonica, percussion;
Danny Federici - Accordion;
Nils Lofgren - Acoustic guitars, backing vocal

Additional musicians on Hungry Heart:
David Crosby - backing vocal;
Graham Nash - backing vocal;
Stephen Stills - acoustic guitar, backing vocal;
Neil Young - acoustic guitar, backing vocal

Mixed by Don Pearson and Tim Mulligan
Recorded by Don Pearson

foobar2000 1.3.7 / Dynamic Range Meter 1.1.1
log date: 2019-08-10 14:09:53

––––––––––––––––––––––––––––––––––––––––
Analyzed: Bruce Springsteen / 1986/10/13 Mountain View, CA
––––––––––––––––––––––––––––––––––––––––

DR Peak RMS Duration Track
––––––––––––––––––––––––––––––––––––––––
DR9 -0.20 dB -12.64 dB 3:28 01-You Can Look (But You Better Not Touch)
DR8 -0.20 dB -12.59 dB 6:01 02-Born in the U.S.A.
DR11 -0.20 dB -16.42 dB 7:55 03-Seeds
DR11 -0.20 dB -14.87 dB 8:32 04-Darlington County
DR12 -0.20 dB -16.60 dB 5:06 05-Mansion on the Hill
DR7 -0.20 dB -10.69 dB 6:00 06-Fire
DR7 -0.20 dB -10.11 dB 5:08 07-Dancing in the Dark
DR6 -0.20 dB -9.67 dB 7:09 08-Glory Days
DR11 -0.20 dB -15.64 dB 5:12 09-Follow That Dream
DR8 -0.20 dB -9.67 dB 4:02 10-Hungry Heart
––––––––––––––––––––––––––––––––––––––––

Number of tracks: 10
Official DR value: DR9

Samplerate: 176400 Hz
Channels: 2
Bits per sample: 24
Bitrate: 4713 kbps
Codec: FLAC
================================================================================


Thanks to the Original customer.