Bruce Springsteen - 1996-11-08 St. Rose of Lima Gymnasium, Freehold, NJ (2018) [Official Digital Download]

Posted By: SERTiL
Bruce Springsteen - 1996-11-08 St. Rose of Lima Gymnasium, Freehold, NJ (2018) [Official Digital Download]

Bruce Springsteen - 1996-11-08 St. Rose of Lima Gymnasium, Freehold, NJ (2018)
FLAC (tracks) 24-bit/44.1 kHz | Time - 151:46 minutes | 1.39 GB
live.brucespringsteen.net, Official Digital Download | Artwork: Front Cover

This memorable homecoming stop on the Tom Joad tour sees Springsteen return to Freehold and his parochial school, St. Rose of Lima. Joined by special guests Patti Scialfa and Soozie Tyrell, Bruce reminisces and tears up the set list for nine tour debuts, including “The River,” “Two Hearts” “Racing in the Street,” a rare “When You’re Alone” and the only tour performances of “Open All Night,” “Used Cars” and “My Hometown.” The show wraps with “Freehold,” an uproarious paean penned for the occasion.

Tracklist:
1.The River 07:45
2.Adam Raised a Cain 04:17
3.Straight Time 06:22
4.Highway 29 04:20
5.Darkness On The Edge Of Town 03:37
6.Johnny 99 06:02
7.Mansion on the Hill 07:41
8.The Wish 06:42
9.Red Headed Woman 04:20
10.Two Hearts 03:44
11.When You're Alone 03:49
12.Open All Night 09:05
13.Used Cars 04:33
14.Born in the U.S.A. 04:59
15.The Ghost of Tom Joad 09:11
16.Sinaloa Cowboys 04:41
17.The Line 07:46
18.Balboa Park 08:45
19.Across The Border 05:50
20.Growin' Up 04:28
21.This Hard Land 05:16
22.My Hometown 06:57
23.Racing in the Street 05:27
24.The Promised Land 07:18
25.Freehold 09:00

Personnel:
Bruce Springsteen - Lead vocal, acoustic guitars, harmonica;
Kevin Buell - Keyboards (off stage)

Additional musicians:
Patti Scialfa - backing vocal on Mansion On The Hill, Two Hearts and When You’re Alone;
Soozie Tyrell - Violin, backing vocal on The River, Mansion On The Hill, Two Hearts, When You’re Alone, My Hometown and Racing in the Street

foobar2000 1.3.7 / Dynamic Range Meter 1.1.1
log date: 2018-06-02 20:49:01

––––––––––––––––––––––––––––––––––––––––
Analyzed: Bruce Springsteen / 1996/11/08 Freehold, NJ
––––––––––––––––––––––––––––––––––––––––

DR Peak RMS Duration Track
––––––––––––––––––––––––––––––––––––––––
DR12 -0.23 dB -16.08 dB 7:45 01-The River
DR12 -0.06 dB -16.26 dB 4:17 02-Adam Raised a Cain
DR14 -0.28 dB -19.92 dB 6:22 03-Straight Time
DR16 -0.55 dB -20.34 dB 4:20 04-Highway 29
DR9 -0.05 dB -11.83 dB 3:37 05-Darkness on the Edge of Town
DR12 -0.26 dB -15.79 dB 6:02 06-Johnny 99
DR13 -2.56 dB -21.37 dB 7:41 07-Mansion on the Hill
DR14 -0.47 dB -20.47 dB 6:42 08-The Wish
DR12 -0.02 dB -15.22 dB 4:20 09-Red Headed Woman
DR13 -0.04 dB -17.21 dB 3:44 10-Two Hearts
DR13 -1.06 dB -18.41 dB 3:49 11-When You're Alone
DR13 -0.03 dB -18.82 dB 9:05 12-Open All Night
DR14 -2.91 dB -23.05 dB 4:33 13-Used Cars
DR11 -0.02 dB -14.16 dB 4:59 14-Born in the U.S.A.
DR16 -1.17 dB -23.52 dB 9:11 01-The Ghost of Tom Joad
DR15 -2.35 dB -23.10 dB 4:41 02-Sinaloa Cowboys
DR16 -0.77 dB -23.22 dB 7:46 03-The Line
DR17 -2.77 dB -26.12 dB 8:45 04-Balboa Park
DR16 0.00 dB -21.56 dB 5:50 05-Across The Border
DR11 -0.03 dB -14.22 dB 4:28 06-Growin' Up
DR12 -0.82 dB -15.74 dB 5:16 07-This Hard Land
DR13 -1.60 dB -17.90 dB 6:57 08-My Hometown
DR14 -0.51 dB -19.01 dB 5:27 09-Racing in the Street
DR15 -0.18 dB -20.83 dB 7:18 10-The Promised Land
DR15 -0.07 dB -20.02 dB 9:00 11-Freehold
––––––––––––––––––––––––––––––––––––––––

Number of tracks: 25
Official DR value: DR14

Samplerate: 44100 Hz
Channels: 2
Bits per sample: 24
Bitrate: 1365 kbps
Codec: FLAC
================================================================================


Thanks to the Original customer.