Tags
Language
Tags
February 2023
Su Mo Tu We Th Fr Sa
29 30 31 1 2 3 4
5 6 7 8 9 10 11
12 13 14 15 16 17 18
19 20 21 22 23 24 25
26 27 28 1 2 3 4

David Bowie - A New Career In A New Town (1977-1982) (2017) [Official Digital Download 24/192]

Posted By: SERTiL
David Bowie - A New Career In A New Town (1977-1982) (2017) [Official Digital Download 24/192]

David Bowie - A New Career In A New Town (1977-1982) (2017)
FLAC (tracks) 24-bit/192 kHz | Time - 350:08 minutes | 13.6 GB
Studio Master, Official Digital Download | Artwork: Digital booklet

This HighResaudio set features all of the material officially released by David Bowie between 1977 and 1982 including all four studio albums, his 1978 live album ‘STAGE’ in both original and expanded tracklistings, the newly compiled “HEROES” E.P., collecting together both the German and French long and single versions of “Heroes”, and the exclusive new compilation of single versions, non-album singles and B-sides, ‘RE:CALL 3’. Also included exclusively is a brand new remix of the 1979 album ‘LODGER’ by long time Bowie producer/collaborator Tony Visconti.

This description may differ from the content of the album. The track-list represents the complete content of the album.

Digitally remastered

David Bowie - A New Career In A New Town (1977-1982) (2017) [Official Digital Download 24/192]

Disc 1: David Bowie - Low (1977/2017)
FLAC (tracks) 24-bit/192 kHz | Time - 39:04 minutes | 1.52 GB
Studio Master, Official Digital Download | Artwork: Front cover


Tracklist:
01 - Speed of Life (2017 Remastered Version)
02 - Breaking Glass (2017 Remastered Version)
03 - What in the World (2017 Remastered Version)
04 - Sound and Vision (2017 Remastered Version)
05 - Always Crashing in the Same Car (2017 Remastered Version)
06 - Be My Wife (2017 Remastered Version)
07 - A New Career in a New Town (2017 Remastered Version)
08 - Warszawa (2017 Remastered Version)
09 - Art Decade (2017 Remastered Version)
10 - Weeping Wall (2017 Remastered Version)
11 - Subterraneans (2017 Remastered Version)

foobar2000 1.3.7 / Dynamic Range Meter 1.1.1
log date: 2017-11-27 22:32:42

––––––––––––––––––––––––––––––––––––––––
Analyzed: David Bowie / Low (Remastered)
––––––––––––––––––––––––––––––––––––––––

DR Peak RMS Duration Track
––––––––––––––––––––––––––––––––––––––––
DR9 -0.10 dB -10.56 dB 2:47 01-Speed of Life (2017 Remastered Version)
DR9 -0.10 dB -11.45 dB 1:52 02-Breaking Glass (2017 Remastered Version)
DR7 -0.10 dB -8.53 dB 2:25 03-What in the World (2017 Remastered Version)
DR9 -0.10 dB -11.34 dB 3:04 04-Sound and Vision (2017 Remastered Version)
DR10 -0.10 dB -11.67 dB 3:35 05-Always Crashing in the Same Car (2017 Remastered Version)
DR8 -0.10 dB -9.75 dB 2:57 06-Be My Wife (2017 Remastered Version)
DR9 -0.10 dB -10.43 dB 2:55 07-A New Career in a New Town (2017 Remastered Version)
DR9 -0.10 dB -12.79 dB 6:27 08-Warszawa (2017 Remastered Version)
DR12 -0.10 dB -15.16 dB 3:48 09-Art Decade (2017 Remastered Version)
DR10 -1.41 dB -16.42 dB 3:29 10-Weeping Wall (2017 Remastered Version)
DR10 -0.10 dB -13.88 dB 5:43 11-Subterraneans (2017 Remastered Version)
––––––––––––––––––––––––––––––––––––––––

Number of tracks: 11
Official DR value: DR9

Samplerate: 192000 Hz
Channels: 2
Bits per sample: 24
Bitrate: 5598 kbps
Codec: FLAC
================================================================================


David Bowie - A New Career In A New Town (1977-1982) (2017) [Official Digital Download 24/192]

Disc 2: David Bowie - Heroes (1977/2017)
FLAC (tracks) 24-bit/192 kHz | Time - 40:47 minutes | 1.56 GB
Studio Master, Official Digital Download | Artwork: Front cover


Tracklist:
01 - Beauty and the Beast (2017 Remastered Version)
02 - Joe the Lion (2017 Remastered Version)
03 - "Heroes" (2017 Remastered Version)
04 - Sons of the Silent Age (2017 Remastered Version)
05 - Blackout (2017 Remastered Version)
06 - V-2 Schneider (2017 Remastered Version)
07 - Sense of Doubt (2017 Remastered Version)
08 - Moss Garden (2017 Remastered Version)
09 - Neuköln (2017 Remastered Version)
10 - The Secret Life of Arabia (2017 Remastered Version)

foobar2000 1.3.7 / Dynamic Range Meter 1.1.1
log date: 2017-11-27 22:33:22

––––––––––––––––––––––––––––––––––––––––
Analyzed: David Bowie / "Hereos" (Remastered)
––––––––––––––––––––––––––––––––––––––––

DR Peak RMS Duration Track
––––––––––––––––––––––––––––––––––––––––
DR8 -0.30 dB -9.89 dB 3:37 12-Beauty and the Beast (2017 Remastered Version)
DR7 -0.30 dB -8.80 dB 3:08 13-Joe the Lion (2017 Remastered Version)
DR9 0.00 dB -9.67 dB 6:11 14-Heroes (2017 Remastered Version)
DR8 -0.30 dB -9.08 dB 3:20 15-Sons of the Silent Age (2017 Remastered Version)
DR8 -0.30 dB -9.45 dB 3:50 16-Blackout (2017 Remastered Version)
DR7 -0.30 dB -9.01 dB 3:11 17-V-2 Schneider (2017 Remastered Version)
DR10 -0.30 dB -14.82 dB 4:00 18-Sense of Doubt (2017 Remastered Version)
DR9 -0.30 dB -12.96 dB 5:06 19-Moss Garden (2017 Remastered Version)
DR11 -0.30 dB -16.03 dB 4:35 20-Neuköln (2017 Remastered Version)
DR8 -0.30 dB -10.20 dB 3:47 21-The Secret Life of Arabia (2017 Remastered Version)
––––––––––––––––––––––––––––––––––––––––

Number of tracks: 10
Official DR value: DR9

Samplerate: 192000 Hz
Channels: 2
Bits per sample: 24
Bitrate: 5650 kbps
Codec: FLAC
================================================================================


David Bowie - A New Career In A New Town (1977-1982) (2017) [Official Digital Download 24/192]

Disc 3: David Bowie - Heroes EP (1977/2017)
FLAC (tracks) 24-bit/96 kHz | Time - 19:25 minutes | 817 MB
Studio Master, Official Digital Download | Artwork: Front cover


Tracklist:
01 - "Heroes" / "Helden"
02 - "Helden" (German Single Version) [2017 Remastered Version]
03 - "Heroes" / "Héros"
04 - "Héros" (French Single Version) [2017 Remastered Version]

foobar2000 1.3.7 / Dynamic Range Meter 1.1.1
log date: 2017-11-27 22:33:42

––––––––––––––––––––––––––––––––––––––––
Analyzed: David Bowie / "Heroes" E.P.
––––––––––––––––––––––––––––––––––––––––

DR Peak RMS Duration Track
––––––––––––––––––––––––––––––––––––––––
DR8 -0.21 dB -9.62 dB 6:07 22-Heroes / Helden
DR8 0.00 dB -8.65 dB 3:39 23-Helden (German Single Version) (2017 Remastered Version)
DR8 -0.30 dB -9.57 dB 6:05 24-Heroes / Héros
DR7 -0.30 dB -9.25 dB 3:34 25-Héros (French Single Version) (2017 Remastered Version)
––––––––––––––––––––––––––––––––––––––––

Number of tracks: 4
Official DR value: DR8

Samplerate: 192000 Hz
Channels: 2
Bits per sample: 24
Bitrate: 5600 kbps
Codec: FLAC
================================================================================


David Bowie - A New Career In A New Town (1977-1982) (2017) [Official Digital Download 24/192]

Disc 4: David Bowie - Stage (1978/2017) [Original Version]
FLAC (tracks) 24-bit/192 kHz | Time - 73:38 minutes | 2,86 GB
Studio Master, Official Digital Download | Artwork: Front cover


Tracklist:
01 - Hang On to Yourself (Live) [2017 Remastered Version]
02 - Ziggy Stardust (Live) [2017 Remastered Version]
03 - Five Years (Live) [2017 Remastered Version]
04 - Soul Love (Live) [2017 Remastered Version]
05 - Star (Live) [2017 Remastered Version]
06 - Station to Station (Live) [2017 Remastered Version]
07 - Fame (Live) [2017 Remastered Version]
08 - TVC 15 (Live) [2017 Remastered Version]
09 - Warszawa (Live) [2017 Remastered Version]
10 - Speed of Life (Live) [2017 Remastered Version]
11 - Art Decade (Live) [2017 Remastered Version]
12 - Sense of Doubt (Live) [2017 Remastered Version]
13 - Breaking Glass (Live) [2017 Remastered Version]
14 - "Heroes" (Live) [2017 Remastered Version]
15 - What in the World (Live) [2017 Remastered Version]
16 - Blackout (Live) [2017 Remastered Version]
17 - Beauty and the Beast (Live) [2017 Remastered Version]

foobar2000 1.3.7 / Dynamic Range Meter 1.1.1
log date: 2017-11-27 22:34:54

––––––––––––––––––––––––––––––––––––––––
Analyzed: David Bowie / Stage (Original) [Live]
––––––––––––––––––––––––––––––––––––––––

DR Peak RMS Duration Track
––––––––––––––––––––––––––––––––––––––––
DR8 -0.50 dB -8.94 dB 3:25 26-Hang On to Yourself (Live) (2017 Remastered Version)
DR8 -0.50 dB -10.15 dB 3:34 27-Ziggy Stardust (Live) (2017 Remastered Version)
DR9 -0.50 dB -12.32 dB 3:57 28-Five Years (Live) (2017 Remastered Version)
DR8 -0.50 dB -10.41 dB 2:56 29-Soul Love (Live) (2017 Remastered Version)
DR8 -0.50 dB -10.36 dB 2:34 30-Star (Live) (2017 Remastered Version)
DR9 -0.50 dB -12.76 dB 8:52 31-Station to Station (Live) (2017 Remastered Version)
DR9 -0.50 dB -10.87 dB 4:08 32-Fame (Live) (2017 Remastered Version)
DR8 -0.50 dB -10.18 dB 4:38 33-TVC 15 (Live) (2017 Remastered Version)
DR9 -0.50 dB -11.54 dB 6:53 34-Warszawa (Live) (2017 Remastered Version)
DR7 -0.50 dB -8.71 dB 2:45 35-Speed of Life (Live) (2017 Remastered Version)
DR8 -0.50 dB -10.37 dB 3:11 36-Art Decade (Live) (2017 Remastered Version)
DR10 -0.50 dB -13.11 dB 3:13 37-Sense of Doubt (Live) (2017 Remastered Version)
DR10 -0.50 dB -12.14 dB 3:31 38-Breaking Glass (Live) (2017 Remastered Version)
DR8 -0.50 dB -9.88 dB 6:20 39-Heroes (Live) (2017 Remastered Version)
DR8 -0.50 dB -9.83 dB 4:25 40-What in the World (Live) (2017 Remastered Version)
DR8 -0.50 dB -9.60 dB 4:03 41-Blackout (Live) (2017 Remastered Version)
DR9 -0.50 dB -10.83 dB 5:12 42-Beauty and the Beast (Live) (2017 Remastered Version)
––––––––––––––––––––––––––––––––––––––––

Number of tracks: 17
Official DR value: DR9

Samplerate: 192000 Hz
Channels: 2
Bits per sample: 24
Bitrate: 5721 kbps
Codec: FLAC
================================================================================


David Bowie - A New Career In A New Town (1977-1982) (2017) [Official Digital Download 24/192]

Disc 5: David Bowie - Stage (1978) [2017 Version]
FLAC (tracks) 24-bit/192 kHz | Time - 97:08 minutes | 3,71 GB
Studio Master, Official Digital Download | Artwork: Front cover


Tracklist:
01 - Warszawa (Live) [2017 Remastered Version]
02 - "Heroes" (Live) [2017 Remastered Version]
03 - What in the World (Live) [2017 Remastered Version]
04 - Be My Wife (Live) [2017 Remastered Version]
05 - The Jean Genie (Live)
06 - Blackout (Live) [2017 Remastered Version]
07 - Sense of Doubt (Live) [2017 Remastered Version]
08 - Speed of Life (Live) [2017 Remastered Version]
09 - Breaking Glass (Live) [2017 Remastered Version]
10 - Beauty and the Beast (Live) [2017 Remastered Version]
11 - Fame (Live) [2017 Remastered Version]
12 - Five Years (Live) [2017 Remastered Version]
13 - Soul Love (Live) [2017 Remastered Version]
14 - Star (Live) [2017 Remastered Version]
15 - Hang On to Yourself (Live) [2017 Remastered Version]
16 - Ziggy Stardust (Live) [2017 Remastered Version]
17 - Suffragette City (Live)
18 - Art Decade (Live) [2017 Remastered Version]
19 - Alabama Song (Live) [2017 Remastered Version]
20 - Station to Station (Live) [2017 Remastered Version]
21 - Stay (Live) [2017 Remastered Version]
22 - TVC 15 (Live) [2017 Remastered Version]

foobar2000 1.3.7 / Dynamic Range Meter 1.1.1
log date: 2017-11-27 22:36:31

––––––––––––––––––––––––––––––––––––––––
Analyzed: David Bowie / Stage (2017) [Live]
––––––––––––––––––––––––––––––––––––––––

DR Peak RMS Duration Track
––––––––––––––––––––––––––––––––––––––––
DR9 -0.50 dB -11.55 dB 6:53 43-Warszawa (Live) (2017 Remastered Version)
DR8 -0.50 dB -9.87 dB 6:19 44-Heroes (Live) (2017 Remastered Version)
DR8 -0.50 dB -9.83 dB 4:25 45-What in the World (Live) (2017 Remastered Version)
DR8 -0.30 dB -9.90 dB 2:50 46-Be My Wife (Live) (2017 Remastered Version)
DR9 -0.30 dB -10.28 dB 6:17 47-The Jean Genie (Live)
DR8 0.00 dB -9.60 dB 4:01 48-Blackout (Live) (2017 Remastered Version)
DR10 -0.50 dB -12.95 dB 3:08 49-Sense of Doubt (Live) (2017 Remastered Version)
DR8 -0.09 dB -9.34 dB 2:41 50-Speed of Life (Live) (2017 Remastered Version)
DR10 0.00 dB -12.67 dB 3:22 51-Breaking Glass (Live) (2017 Remastered Version)
DR9 0.00 dB -10.77 dB 5:07 52-Beauty and the Beast (Live) (2017 Remastered Version)
DR9 -0.50 dB -10.96 dB 4:15 53-Fame (Live) (2017 Remastered Version)
DR9 -0.50 dB -12.32 dB 3:57 54-Five Years (Live) (2017 Remastered Version)
DR8 -0.50 dB -10.41 dB 2:56 55-Soul Love (Live) (2017 Remastered Version)
DR8 -0.50 dB -10.18 dB 2:28 56-Star (Live) (2017 Remastered Version)
DR7 -0.27 dB -8.45 dB 3:22 57-Hang On to Yourself (Live) (2017 Remastered Version)
DR8 -0.50 dB -10.09 dB 3:30 58-Ziggy Stardust (Live) (2017 Remastered Version)
DR8 -0.50 dB -9.87 dB 3:59 59-Suffragette City (Live)
DR8 -0.50 dB -10.16 dB 3:02 60-Art Decade (Live) (2017 Remastered Version)
DR8 -0.49 dB -9.29 dB 3:56 61-Alabama Song (Live) (2017 Remastered Version)
DR9 -0.50 dB -11.87 dB 8:43 62-Station to Station (Live) (2017 Remastered Version)
DR7 -0.31 dB -8.69 dB 7:22 63-Stay (Live) (2017 Remastered Version)
DR7 -0.40 dB -8.94 dB 4:36 64-TVC 15 (Live) (2017 Remastered Version)
––––––––––––––––––––––––––––––––––––––––

Number of tracks: 22
Official DR value: DR8

Samplerate: 192000 Hz
Channels: 2
Bits per sample: 24
Bitrate: 5923 kbps
Codec: FLAC
================================================================================


David Bowie - A New Career In A New Town (1977-1982) (2017) [Official Digital Download 24/192]

Disc 6: David Bowie - Lodger (1979/2017)
FLAC (tracks) 24-bit/192 kHz | Time - 34:58 minutes | 1.37 GB
Studio Master, Official Digital Download | Artwork: Front cover


Tracklist:
01 - Fantastic Voyage (2017 Remastered Version)
02 - African Night Flight (2017 Remastered Version)
03 - Move On (2017 Remastered Version)
04 - Yassassin (Turkish for: Long Live) [2017 Remastered Version]
05 - Red Sails (2017 Remastered Version)
06 - D.J. (2017 Remastered Version)
07 - Look Back in Anger (2017 Remastered Version)
08 - Boys Keep Swinging (2017 Remastered Version)
09 - Repetition (2017 Remastered Version)
10 - Red Money (2017 Remastered Version)

foobar2000 1.3.7 / Dynamic Range Meter 1.1.1
log date: 2017-11-27 22:37:07

––––––––––––––––––––––––––––––––––––––––
Analyzed: David Bowie / Lodger
––––––––––––––––––––––––––––––––––––––––

DR Peak RMS Duration Track
––––––––––––––––––––––––––––––––––––––––
DR9 -0.30 dB -10.83 dB 2:55 65-Fantastic Voyage (2017 Remastered Version)
DR10 -0.30 dB -12.02 dB 2:57 66-African Night Flight (2017 Remastered Version)
DR10 -0.30 dB -11.06 dB 3:20 67-Move On (2017 Remastered Version)
DR11 -0.30 dB -12.66 dB 4:13 68-Yassassin (Turkish for: Long Live) (2017 Remastered Version)
DR9 -0.30 dB -11.22 dB 3:45 69-Red Sails (2017 Remastered Version)
DR9 -0.30 dB -10.94 dB 4:01 70-D.J. (2017 Remastered Version)
DR9 -0.30 dB -10.57 dB 3:08 71-Look Back in Anger (2017 Remastered Version)
DR9 -0.30 dB -10.76 dB 3:19 72-Boys Keep Swinging (2017 Remastered Version)
DR10 -0.30 dB -11.91 dB 3:00 73-Repetition (2017 Remastered Version)
DR10 -0.30 dB -11.56 dB 4:19 74-Red Money (2017 Remastered Version)
––––––––––––––––––––––––––––––––––––––––

Number of tracks: 10
Official DR value: DR10

Samplerate: 192000 Hz
Channels: 2
Bits per sample: 24
Bitrate: 5744 kbps
Codec: FLAC
================================================================================


David Bowie - A New Career In A New Town (1977-1982) (2017) [Official Digital Download 24/192]

Disc 7: David Bowie - Scary Monsters (And Super Creeps) (1980/2017)
FLAC (tracks) 24-bit/192 kHz | Time - 45:48 minutes | 1,82 GB
Studio Master, Official Digital Download | Artwork: Front cover


Tracklist:
01 - It's No Game (Part 1) [2017 Remastered Version]
02 - Up the Hill Backwards (2017 Remastered Version)
03 - Scary Monsters (And Super Creeps) [2017 Remastered Version]
04 - Ashes to Ashes (2017 Remastered Version)
05 - Fashion (2017 Remastered Version)
06 - Teenage Wildlife (2017 Remastered Version)
07 - Scream Like a Baby (2017 Remastered Version)
08 - Kingdom Come (2017 Remastered Version)
09 - Because You're Young (2017 Remastered Version)
10 - It's No Game (Part 2) [2017 Remastered Version]

foobar2000 1.3.7 / Dynamic Range Meter 1.1.1
log date: 2017-11-27 22:37:54

––––––––––––––––––––––––––––––––––––––––
Analyzed: David Bowie / Scary Monsters (And Super Creeps)
––––––––––––––––––––––––––––––––––––––––

DR Peak RMS Duration Track
––––––––––––––––––––––––––––––––––––––––
DR9 -0.30 dB -10.63 dB 4:17 75-It's No Game (Part 1) (2017 Remastered Version)
DR9 -0.30 dB -11.70 dB 3:16 76-Up the Hill Backwards (2017 Remastered Version)
DR9 -0.30 dB -10.95 dB 5:13 77-Scary Monsters (And Super Creeps) (2017 Remastered Version)
DR9 -0.30 dB -11.97 dB 4:26 78-Ashes to Ashes (2017 Remastered Version)
DR9 -0.30 dB -11.21 dB 4:50 79-Fashion (2017 Remastered Version)
DR9 -0.30 dB -10.56 dB 6:58 80-Teenage Wildlife (2017 Remastered Version)
DR8 -0.30 dB -10.10 dB 3:37 81-Scream Like a Baby (2017 Remastered Version)
DR8 -0.30 dB -10.07 dB 3:47 82-Kingdom Come (2017 Remastered Version)
DR8 -0.30 dB -10.74 dB 4:56 83-Because You're Young (2017 Remastered Version)
DR7 -0.50 dB -10.54 dB 4:26 84-It's No Game (Part 2) (2017 Remastered Version)
––––––––––––––––––––––––––––––––––––––––

Number of tracks: 10
Official DR value: DR9

Samplerate: 192000 Hz
Channels: 2
Bits per sample: 24
Bitrate: 5758 kbps
Codec: FLAC
================================================================================


Thanks to the Original customer.