Tags
Language
Tags

Adele - 19 (2008) [Vinyl Rip, 24/96]

Posted By: pyatak
Adele - 19 (2008) [Vinyl Rip, 24/96]

Adele - 19 (2008) [Vinyl Rip, 24/96]
Vinyl Rip, FLAC (tracks) 24-bit/96 kHz | Front Cover | Time - 43:43 minutes | 987 MB
Jazz-Soul, Soul | Label: XL Recordings

19 is the debut studio album by English singer-songwriter Adele released on 28 January 2008, by XL Recordings. Following Adele's graduation from the BRIT School in April 2006, she began publishing songs and recorded a three-song demo for a class project and gave it to a friend, who posted the demo on Myspace, where it became very successful and led to interest from the record label. This led to Adele signing a recording contract at age 17 with the label and providing vocals for Jack Peñate, during this session for Peñate's song she met producer Jim Abbiss, who would go on to produce the majority of her debut album.

Named after the age of the singer during its release and production, Adele wrote most of the album's material solely, but did work with a select few writers and producers including Jim Abbiss, Eg White and Sacha Skarbek. Their collaborations created a blue-eyed soul album with lyrics describing heartbreak, nostalgia and relationships. Upon release, 19 received positive reviews from critics, who praised Adele's vocal prowess and songwriting talent at such a young age and noted her as having the "potential to become among the most respected and inspiring international artists of her generation." 19 also won numerous accolades including the Mercury Prize and the European Border Breakers Award. At the 51st Annual Grammy Awards, Adele won Best New Artist alongside Best Female Pop Vocal Performance for "Chasing Pavements".

Four singles were released from the album, with "Chasing Pavements" and "Make You Feel My Love" reaching the top ten on the UK Singles Chart, while the former became Adele's first entry on the Billboard Hot 100. The album also contains her first song, "Hometown Glory", written when she was 16, which is based on her home suburb of West Norwood in London. 19 became a global success, reaching number one in Netherlands, Scotland and the United Kingdom, while top 10 in fifteen countries including Australia, Brazil and the United States. The album is certified 8x platinum by the BPI with sales of over 2.4 million, while 3x platinum in the US by RIAA, having sold over 3 million copies. The album has sold over 6.5 million copies worldwide.

TRACKLIST

1. Adele - Daydreamer
2. Adele - Best for Last
3. Adele - Chasing Pavements
4. Adele - Cold Shoulder
5. Adele - Crazy for You
6. Adele - Melt My Heart to Stone
7. Adele - First Love
8. Adele - Right as Rain
9. Adele - Make You Feel My Love
10. Adele - My Same
11. Adele - Tired
12. Adele - Hometown Glory

foobar2000 1.6.2 / Dynamic Range Meter 1.1.1
log date: 2021-07-26 18:15:46

––––––––––––––––––––––––––––––––––––––––
Analyzed: Adele / 19 (EU LP)
––––––––––––––––––––––––––––––––––––––––

DR Peak RMS Duration Track
––––––––––––––––––––––––––––––––––––––––
DR10 -5.42 dB -18.05 dB 3:40 01-Daydreamer
DR10 -3.73 dB -15.39 dB 4:19 02-Best for Last
DR10 -0.39 dB -14.63 dB 3:31 03-Chasing Pavements
DR9 -0.61 dB -12.83 dB 3:10 04-Cold Shoulder
DR11 -4.56 dB -18.72 dB 3:28 05-Crazy for You
DR10 -2.49 dB -15.60 dB 3:28 06-Melt My Heart to Stone
DR11 -4.75 dB -18.42 dB 3:11 07-First Love
DR9 -1.31 dB -13.35 dB 3:18 08-Right as Rain
DR11 -4.12 dB -18.56 dB 3:32 09-Make You Feel My Love
DR9 -1.31 dB -13.19 dB 3:16 10-My Same
DR10 -0.26 dB -13.83 dB 4:20 11-Tired
DR7 -3.64 dB -15.13 dB 4:29 12-Hometown Glory
––––––––––––––––––––––––––––––––––––––––

Number of tracks: 12
Official DR value: DR10

Samplerate: 96000 Hz
Channels: 2
Bits per sample: 24
Bitrate: 2716 kbps
Codec: FLAC
================================================================================



Thanks to the Original customer.