Tags
Language
Tags
March 2024
Su Mo Tu We Th Fr Sa
25 26 27 28 29 1 2
3 4 5 6 7 8 9
10 11 12 13 14 15 16
17 18 19 20 21 22 23
24 25 26 27 28 29 30
31 1 2 3 4 5 6

Ajeet - Voices Like Rain (Live) (2021) [Official Digital Download 24/96]

Posted By: pyatak
Ajeet - Voices Like Rain (Live) (2021) [Official Digital Download 24/96]

Ajeet - Voices Like Rain (Live) (2021) [Official Digital Download 24/96]
FLAC (tracks) 24-bit/48-96kHz | Front Cover | Time - 61:43 minutes | 1,04 GB
Folk | Label: Spirit Voyage Records, Official Digital Download

"Voices Like Rain”, our first ever live album, is now yours on all platforms!! Thank you for lending your hearts and voices to these concerts — this album could not be without you in it!

TRACKLIST

01. Ajeet - Akaal (Live in Zürich)
02. Ajeet - Aya (Vozes da Terra) (Live in Lisbon)
03. Ajeet - Breathe (I Am Free) (Live in Amsterdam)
04. Ajeet - Haseya (Live in Barcelona)
05. Ajeet - Indigo Sea (Live in Dortmund)
06. Ajeet - Kiss the Earth (La Luna) (Live in Ludwigsburg)
07. Ajeet - Travellers (Live in Ludwigsburg)

foobar2000 1.6.2 / Dynamic Range Meter 1.1.1
log date: 2021-08-13 18:38:31

––––––––––––––––––––––––––––––––––––––––
Analyzed: Ajeet / Voices Like Rain
––––––––––––––––––––––––––––––––––––––––

DR Peak RMS Duration Track
––––––––––––––––––––––––––––––––––––––––
DR14 -0.18 dB -18.37 dB 8:36 01-Akaal (Live in Zürich)
DR12 -0.18 dB -14.46 dB 8:32 02-Aya (Vozes da Terra) (Live in Lisbon)
DR12 -0.18 dB -16.57 dB 9:41 03-Breathe (I Am Free) (Live in Amsterdam)
DR13 -0.18 dB -17.05 dB 11:34 04-Haseya (Live in Barcelona)
DR11 -0.18 dB -15.01 dB 6:03 05-Indigo Sea (Live in Dortmund)
DR11 -0.18 dB -16.18 dB 10:52 06-Kiss the Earth (La Luna) (Live in Ludwigsburg)
––––––––––––––––––––––––––––––––––––––––

Number of tracks: 6
Official DR value: DR12

Samplerate: 96000 Hz
Channels: 2
Bits per sample: 24
Bitrate: 2478 kbps
Codec: FLAC
================================================================================

foobar2000 1.6.2 / Dynamic Range Meter 1.1.1
log date: 2021-08-13 18:38:06

––––––––––––––––––––––––––––––––––––––––
Statistics for: 07-Travellers (Live in Ludwigsburg)
Number of samples: 18518314
Duration: 6:26
––––––––––––––––––––––––––––––––––––––––

Left Right

Peak Value: -0.18 dB –- -0.17 dB
Avg RMS: -15.83 dB –- -15.48 dB
DR channel: 12.31 dB –- 11.81 dB
––––––––––––––––––––––––––––––––––––––––

Official DR Value: DR12

Samplerate: 48000 Hz
Channels: 2
Bits per sample: 24
Bitrate: 1509 kbps
Codec: FLAC
================================================================================


Thanks to the Original customer.