Akademie für Alte Musik Berlin - Mozart: Gran Partita - Wind Serenades K. 361 & 375 (2021) [Official Digital Download 24/96]

Posted By: pyatak
Akademie für Alte Musik Berlin - Mozart: Gran Partita - Wind Serenades K. 361 & 375 (2021) [Official Digital Download 24/96]

Akademie für Alte Musik Berlin - Mozart: Gran Partita - Wind Serenades K. 361 & 375 (2021) [Official Digital Download 24/96]]
FLAC (tracks) 24-bit/96 kHz | Front Cover | Time - 71:45 minutes | 1,23 GB
Classical | Label: harmonia mundi, Official Digital Download

When Mozart took up the popular genre of the serenade, it was to transcend it and lend it new lustre. A festive masterpiece of simplicity and emotion, his Gran Partita quickly became a genuine ‘hit’! Thanks to the distinctive, spellbinding timbres of their period instruments, the members of the Akademie für Alte Musik Berlin give a unique flavour to these two extraordinary serenades, over which there blows – as it were – a tremendous wind of freedom.

Blazers van de Akademie für Alte Musik hebben Mozarts serenades nr 10 (KV361) beter bekend als “Gran Partita” en nr. 11 (K.375) opgenomen. Beide werken worden uitgevoerd op authentieke instrumenten. Met name de luchtige “Gran Partita” werd in Mozarts tijd een ware hit. Zelfs tot op de dag van vandaag is dit werk nog steeds geliefd is én is het regelmatig op verschillende podia te horen.


TRACKLIST

01. Akademie für Alte Musik Berlin - Serenade No. 11 in E-Flat Major, K. 375: I. Allegro maestoso
02. Akademie für Alte Musik Berlin - Serenade No. 11 in E-Flat Major, K. 375: II. Menuetto - Trio
03. Akademie für Alte Musik Berlin - Serenade No. 11 in E-Flat Major, K. 375: III. Adagio
04. Akademie für Alte Musik Berlin - Serenade No. 11 in E-Flat Major, K. 375: IV. Menuetto - Trio
05. Akademie für Alte Musik Berlin - Serenade No. 11 in E-Flat Major, K. 375: V. Finale. Allegro
06. Akademie für Alte Musik Berlin - Serenade No. 10 in B-Flat Major, K. 361 "Gran partita": I. Largo - Molto allegro
07. Akademie für Alte Musik Berlin - Serenade No. 10 in B-Flat Major, K. 361 "Gran Partita": II. Menuetto - Trio I - Trio II
08. Akademie für Alte Musik Berlin - Serenade No. 10 in B-Flat Major, K. 361 "Gran partita": III. Adagio
09. Akademie für Alte Musik Berlin - Serenade No. 10 in B-Flat Major, K. 361 "Gran Partita": IV. Menuetto. Allegretto - Trio I - Trio II
10. Akademie für Alte Musik Berlin - Serenade No. 10 in B-Flat Major, K. 361 "Gran partita": V. Romance. Adagio
11. Akademie für Alte Musik Berlin - Serenade No. 10 in B-Flat Major, K. 361 "Gran Partita": VI. Tema con variazioni. Andante
12. Akademie für Alte Musik Berlin - Serenade No. 10 in B-Flat Major, K. 361 "Gran partita": VII. Finale. Molto allegro

foobar2000 1.6.2 / Dynamic Range Meter 1.1.1
log date: 2021-05-04 19:35:34

––––––––––––––––––––––––––––––––––––––––
Analyzed: Akademie für Alte Musik Berlin / Mozart: Gran Partita - Wind Serenades K. 361 & 375
––––––––––––––––––––––––––––––––––––––––

DR Peak RMS Duration Track
––––––––––––––––––––––––––––––––––––––––
DR13 -1.40 dB -19.31 dB 7:39 01-Serenade No. 11 in E-Flat Major, K. 375: I. Allegro maestoso
DR14 -2.15 dB -19.63 dB 3:37 02-Serenade No. 11 in E-Flat Major, K. 375: II. Menuetto - Trio
DR13 -3.08 dB -20.25 dB 5:45 03-Serenade No. 11 in E-Flat Major, K. 375: III. Adagio
DR13 -2.05 dB -19.92 dB 2:21 04-Serenade No. 11 in E-Flat Major, K. 375: IV. Menuetto - Trio
DR14 -1.38 dB -18.84 dB 3:41 05-Serenade No. 11 in E-Flat Major, K. 375: V. Finale. Allegro
DR12 -1.01 dB -17.34 dB 9:49 06-Serenade No. 10 in B-Flat Major, K. 361 "Gran partita": I. Largo - Molto allegro
DR13 -1.01 dB -18.50 dB 8:57 07-Serenade No. 10 in B-Flat Major, K. 361 "Gran Partita": II. Menuetto - Trio I - Trio II
DR11 -5.73 dB -20.20 dB 5:20 08-Serenade No. 10 in B-Flat Major, K. 361 "Gran partita": III. Adagio
DR13 -1.01 dB -18.06 dB 4:55 09-Serenade No. 10 in B-Flat Major, K. 361 "Gran Partita": IV. Menuetto. Allegretto - Trio I - Trio II
DR13 -2.18 dB -19.26 dB 6:31 10-Serenade No. 10 in B-Flat Major, K. 361 "Gran partita": V. Romance. Adagio
DR15 -1.01 dB -20.30 dB 9:38 11-Serenade No. 10 in B-Flat Major, K. 361 "Gran Partita": VI. Tema con variazioni. Andante
DR13 -1.01 dB -17.61 dB 3:32 12-Serenade No. 10 in B-Flat Major, K. 361 "Gran partita": VII. Finale. Molto allegro
––––––––––––––––––––––––––––––––––––––––

Number of tracks: 12
Official DR value: DR13

Samplerate: 96000 Hz
Channels: 2
Bits per sample: 24
Bitrate: 2524 kbps
Codec: FLAC
================================================================================



Thanks to the Original customer.