Tags
Language
Tags

Al Cohn - The Progressive Al Cohn (1956/2021) [Official Digital Download 24/96]

Posted By: pyatak
Al Cohn - The Progressive Al Cohn (1956/2021) [Official Digital Download 24/96]

Al Cohn - The Progressive Al Cohn (1956/2021) [Official Digital Download 24/96]
FLAC (tracks) 24-bit/96 kHz | Front Cover | Time - 36:33 minutes | 556 MB
Jazz | Label: RevOla, Official Digital Download

Al Cohn's Tones (also released as The Progressive Al Cohn) is an album by saxophonist composer and arranger Al Cohn comprising two sessions, one recorded in 1950 and the other from 1953, which was released on the Savoy label in 1956.

TRACKLIST

1. Al Cohn - Infinity (Remastered)
2. Al Cohn - Groovin' With Gus (Remastered)
3. Al Cohn - How Long Has This Been Going On? (Remastered)
4. Al Cohn - Let's Get Away From It All (Remastered)
5. Al Cohn - That's What You Think! (take 1) (Remastered)
6. Al Cohn - I'm Tellin' Ya (Remastered)
7. Al Cohn - Jane Street (Remastered)
8. Al Cohn - Ah-Moore (Remastered)
9. Al Cohn - That's What You Think (master take) (Remastered)

foobar2000 1.6.2 / Dynamic Range Meter 1.1.1
log date: 2021-09-25 11:36:48

––––––––––––––––––––––––––––––––––––––––
Analyzed: Al Cohn / The Progressive Al Cohn (1953)
––––––––––––––––––––––––––––––––––––––––

DR Peak RMS Duration Track
––––––––––––––––––––––––––––––––––––––––
DR12 -1.08 dB -14.58 dB 2:54 01-Infinity (Remastered)
DR11 -3.49 dB -15.74 dB 2:31 02-Groovin' With Gus (Remastered)
DR10 -4.54 dB -17.33 dB 3:11 03-How Long Has This Been Going On? (Remastered)
DR12 -1.97 dB -16.07 dB 3:06 04-Let's Get Away From It All (Remastered)
DR14 -2.74 dB -19.10 dB 4:47 05-That's What You Think! (take 1) (Remastered)
DR15 -0.98 dB -18.23 dB 5:57 06-I'm Tellin' Ya (Remastered)
DR13 -3.01 dB -17.99 dB 4:30 07-Jane Street (Remastered)
DR12 -4.74 dB -19.51 dB 4:51 08-Ah-Moore (Remastered)
DR16 0.00 dB -17.35 dB 4:44 09-That's What You Think (master take) (Remastered)
––––––––––––––––––––––––––––––––––––––––

Number of tracks: 9
Official DR value: DR13

Samplerate: 96000 Hz
Channels: 2
Bits per sample: 24
Bitrate: 2128 kbps
Codec: FLAC
================================================================================



Thanks to the Original customer.