Tags
Language
Tags
February 2024
Su Mo Tu We Th Fr Sa
28 29 30 31 1 2 3
4 5 6 7 8 9 10
11 12 13 14 15 16 17
18 19 20 21 22 23 24
25 26 27 28 29 1 2
Attention❗ To save your time, in order to download anything on this site, you must be registered 👉 HERE. If you do not have a registration yet, it is better to do it right away. ✌

( • )( • ) ( ͡⚆ ͜ʖ ͡⚆ ) (‿ˠ‿)
SpicyMags.xyz

Ales Barta - Organ Surround Illusion: Toccata And Fugue (2001) [SACD-R][OF]

Posted By: Discograf_man
Ales Barta - Organ Surround Illusion: Toccata And Fugue (2001) [SACD-R][OF]

Ales Barta - Organ Surround Illusion: Toccata And Fugue (2001) [SACD-R][OF]
Classical | SACD ISO: DST64 2.0, 5.0 > 1-bit/2.8224 MHz | Artwork | 3.25 GB
Label: Octavia Records | Release Year: 2001

High Quality Non-Compressed Japanese Import SACD! Superior Sound!
Organist Ales Barta performs compositional works by J.S. Bach, Brahms, Liszt, Franck, Boellmann, and Messiaen.
This Exton Laboratory Gold Line Hybrid Stereo disc is a high quality non-compressed Japanese Import SACD. Recorded on a custom Sony DSD recorder, this audiophile SACD is packaged in an XRCD-like luxury digipak. This disc includes a booklet with detailed microphone and equipment diagram and placement used for each individual recording! Superior quality Japanese Import SACD, manufactured in Yokohama, Japan. Only the best recordings - technically and artistically!
Tracklist:
JOHANN SEBASTIAN BACH (1685—1750)
[1] Toccata and Fugue in D minor BWV.565 (9:28)
[2] Chorale "Jesus bleibt meine Freude" BWV.147 (4:17)
[3] Chorale "Wachet auf ruft uns die Stimme" BWV.645 (4:41)

JHANNES BRAHMS (1833—97)
[4] Chorale Preludo "Herzlich tut mich verlangen" Op.122-10 (3:14)
[5] Prelude and Fugue in G minor (6:36)

FRANZ LISZT (1811—86)
[6] Prelude and Fugue on the name of B-A-C-H S.260 (12:38)

CÉSAR FRANCK (1822—90)
[7] Prelude, Fugue and Variation Op.18 (9:51)

LÉON BOELLMANN (1862—97)
[8] IV Toccata — "Suite gothique" Op.25 (3:34)

OLIVIER MESSIAN (1908—92)
[9] IX Dieu parmi nous — "La nativite du Seigneur" (1935) (8:14)

Ales Barta - Organ Surround Illusion: Toccata And Fugue (2001) [SACD-R][OF]

Ales Barta - Organ Surround Illusion: Toccata And Fugue (2001) [SACD-R][OF]

foobar2000 1.3.13 / Замер динамического диапазона (DR) 1.1.1
Дата отчёта: 2017-01-14 16:55:01

––––––––––––––––––––––––––––––––––––––––
Анализ: Ales Barta / Toccata and Fugue. Organ surround illusion
––––––––––––––––––––––––––––––––––––––––

DR Пики RMS Продолжительность трека
––––––––––––––––––––––––––––––––––––––––
DR11 -5.96 дБ -26.03 дБ 9:28 01-Bach - Toccata and Fugue in D minor BWV.565
DR10 -13.37 дБ -29.81 дБ 4:17 02-Bach - Chorale 'Jesus bleibt meine Freude' BWV.147
DR9 -13.02 дБ -28.54 дБ 4:40 03-Bach - Chorale 'Wachet auf ruft uns die Stimme' BWV.645
DR8 -16.03 дБ -31.31 дБ 3:15 04-Brahms - Chorale Preludo 'Herzlich tut mich verlangen' Op.122-10
DR11 -6.42 дБ -24.81 дБ 6:36 05-Brahms - Prelude and Fugue in G minor
DR13 -5.07 дБ -26.31 дБ 12:38 06-Liszt - Prelude and Fugue on the name of B-A-C-H S.260
DR13 -5.96 дБ -29.10 дБ 9:52 07-Franck - Prelude, Fugue and Variation Op.18
DR12 -4.29 дБ -23.68 дБ 3:33 08-Boellmann - IV Toccata - 'Suite gothique' Op.25
DR14 -4.60 дБ -27.03 дБ 8:14 09-Messian - IX Dieu parmi nous - 'La nativite du Seigneur' (1935)
––––––––––––––––––––––––––––––––––––––––

Количество треков: 9
Реальные значения DR: DR11

Частота: 2822400 Гц / Частота PCM: 44100 Гц
Каналов: 5
Разрядность: 24
Битрейт: 14112 кбит/с
Кодек: DST64
================================================================================

––––––––––––––––––––––––––––––––––––––––
Анализ: Ales Barta / Toccata and Fugue. Organ surround illusion
––––––––––––––––––––––––––––––––––––––––

DR Пики RMS Продолжительность трека
––––––––––––––––––––––––––––––––––––––––
DR11 -5.96 дБ -22.50 дБ 9:28 01-Bach - Toccata and Fugue in D minor BWV.565
DR11 -13.38 дБ -26.21 дБ 4:17 02-Bach - Chorale 'Jesus bleibt meine Freude' BWV.147
DR9 -13.02 дБ -24.92 дБ 4:40 03-Bach - Chorale 'Wachet auf ruft uns die Stimme' BWV.645
DR8 -16.03 дБ -27.69 дБ 3:15 04-Brahms - Chorale Preludo 'Herzlich tut mich verlangen' Op.122-10
DR11 -6.43 дБ -21.30 дБ 6:36 05-Brahms - Prelude and Fugue in G minor
DR13 -5.05 дБ -23.18 дБ 12:38 06-Liszt - Prelude and Fugue on the name of B-A-C-H S.260
DR13 -5.96 дБ -25.59 дБ 9:52 07-Franck - Prelude, Fugue and Variation Op.18
DR12 -4.30 дБ -20.50 дБ 3:33 08-Boellmann - IV Toccata - 'Suite gothique' Op.25
DR14 -4.59 дБ -24.35 дБ 8:14 09-Messian - IX Dieu parmi nous - 'La nativite du Seigneur' (1935)
––––––––––––––––––––––––––––––––––––––––

Количество треков: 9
Реальные значения DR: DR11

Частота: 2822400 Гц / Частота PCM: 44100 Гц
Каналов: 2
Разрядность: 24
Битрейт: 5645 кбит/с
Кодек: DST64
================================================================================

Thanks to the original customer