Alessio Bax - Italian Inspirations (2020) [Official Digital Download 24/96]

Posted By: SERTiL
Alessio Bax - Italian Inspirations (2020) [Official Digital Download 24/96]

Alessio Bax - Italian Inspirations (2020)
FLAC (tracks) 24-bit/96 kHz | Time - 64:11 minutes | 0.99 GB
Studio Master, Official Digital Download | Artwork: Digital Booklet

Alessio Bax plays an Italian-inspired programme, picking his favourite pieces taken from a rich history of music from one of the most romantic countries in the world.  He opens the programme with a J.S. Bach transcription of an oboe concerto by Venetian composer Alessandro Marcello, which reveals a deep insight into Bach’s mind.

This is followed by Rachmaninov’s last ever work for solo piano, which is incredibly eloquent, introspective and personal.

The Dallapiccola continues this eloquent theme, showing some beautifully crafted dodecaphonism. The recording is rounded off with two pieces by Liszt, which take the listener on a multi-legged journey through Hell, Purgatory and Heaven, with beauty and drama along the way.

Tracklist:
01. Concerto in D Minor after Alessando Marcello, BWV 974: I. Andante Spiccato (2:27)
02. Concerto in D Minor after Alessando Marcello, BWV 974: II. Adagio (3:34)
03. Concerto in D Minor after Alessando Marcello, BWV 974: III. Presto (3:49)
04. Variations on a Theme of Corelli, Op. 42: Theme (0:54)
05. Variation I (0:44)
06. Variation II (0:35)
07. Variation III (0:32)
08. Variations IV & V (1:14)
09. Variation VI (0:19)
10. Variation VII (0:23)
11. Variation VIII (0:58)
12. Variation IX (0:55)
13. Variation X (0:32)
14. Variation XI (0:22)
15. Variation XII (0:35)
16. Variation XIII (0:28)
17. Variations on a Theme of Corelli, Op. 42: Intermezzo (1:13)
18. Variation XIV (1:00)
19. Variation XV (1:30)
20. Variation XVI (0:31)
21. Variation XVII (0:53)
22. Variation XVIII (0:30)
23. Variation XIX (0:23)
24. Variation XX (0:50)
25. Variations on a Theme of Corelli, Op. 42: Coda (1:44)
26. Quaderno musicale di Annalibera: I. Simbolo (2:36)
27. Quaderno musicale di Annalibera: II. Accenti (0:30)
28. Quaderno musicale di Annalibera: III. Contrapunctus primus (1:08)
29. Quaderno musicale di Annalibera: IV. Linee (0:46)
30. Quaderno musicale di Annalibera: V. Contrapunctus secondus (0:19)
31. Quaderno musicale di Annalibera: VI. Fregi (1:23)
32. Quaderno musicale di Annalibera: VII. Andantino amoroso e contrapunctus tertius (1:22)
33. Quaderno musicale di Annalibera: VIII. Ritmi (1:10)
34. Quaderno musicale di Annalibera: IX. Colore (1:11)
35. Quaderno musicale di Annalibera: X. Ombre (1:47)
36. Quaderno musicale di Annalibera: XI. Quartina (1:34)
37. Deux Légendes, S. 175: I. St. François d'Assise - La prédication aux oiseaux (8:50)
38. Années de pèlerinage II, S. 161: VII. Après une lecture du Dante - Fantasia quasi sonata (14:59)

foobar2000 1.3.7 / Dynamic Range Meter 1.1.1
log date: 2020-02-04 18:05:06

––––––––––––––––––––––––––––––––––––––––
Analyzed: Alessio Bax / Italian Inspirations
––––––––––––––––––––––––––––––––––––––––

DR Peak RMS Duration Track
––––––––––––––––––––––––––––––––––––––––
DR12 -2.17 dB -19.68 dB 2:27 01-Concerto in D Minor after Alessando Marcello, BWV 974: I. Andante Spiccato
DR12 -12.12 dB -29.86 dB 3:34 02-Concerto in D Minor after Alessando Marcello, BWV 974: II. Adagio
DR12 -5.67 dB -22.11 dB 3:49 03-Concerto in D Minor after Alessando Marcello, BWV 974: III. Presto
DR13 -17.54 dB -37.28 dB 0:54 04-Variations on a Theme of Corelli, Op. 42: Theme
DR8 -12.87 dB -28.12 dB 0:44 05-Variation I
DR13 -9.69 dB -29.08 dB 0:35 06-Variation II
DR12 -7.94 dB -24.21 dB 0:32 07-Variation III
DR13 -2.55 dB -23.37 dB 1:14 08-Variations IV & V
DR12 -4.17 dB -22.32 dB 0:19 09-Variation VI
DR11 -2.97 dB -17.45 dB 0:23 10-Variation VII
DR13 -13.28 dB -30.80 dB 0:58 11-Variation VIII
DR10 -10.96 dB -28.11 dB 0:55 12-Variation IX
DR11 -6.07 dB -24.88 dB 0:32 13-Variation X
DR12 -3.17 dB -18.53 dB 0:22 14-Variation XI
DR12 -5.58 dB -22.28 dB 0:35 15-Variation XII
DR12 0.00 dB -20.24 dB 0:28 16-Variation XIII
DR13 -6.24 dB -24.15 dB 1:13 17-Variations on a Theme of Corelli, Op. 42: Intermezzo
DR12 -12.53 dB -31.01 dB 1:00 18-Variation XIV
DR12 -15.95 dB -33.51 dB 1:30 19-Variation XV
DR11 -5.49 dB -20.60 dB 0:31 20-Variation XVI
DR13 -7.13 dB -26.81 dB 0:53 21-Variation XVII
DR11 -2.77 dB -17.61 dB 0:30 22-Variation XVIII
DR9 -5.81 dB -18.81 dB 0:23 23-Variation XIX
DR10 -1.04 dB -16.14 dB 0:50 24-Variation XX
DR11 -13.22 dB -31.04 dB 1:44 25-Variations on a Theme of Corelli, Op. 42: Coda
DR14 -15.97 dB -35.59 dB 2:36 26-Quaderno musicale di Annalibera: I. Simbolo
DR13 -2.38 dB -19.26 dB 0:30 27-Quaderno musicale di Annalibera: II. Accenti
DR12 -16.79 dB -35.00 dB 1:08 28-Quaderno musicale di Annalibera: III. Contrapunctus primus
DR11 -21.76 dB -38.88 dB 0:46 29-Quaderno musicale di Annalibera: IV. Linee
DR11 -10.09 dB -28.97 dB 0:19 30-Quaderno musicale di Annalibera: V. Contrapunctus secondus
DR12 -15.11 dB -33.36 dB 1:23 31-Quaderno musicale di Annalibera: VI. Fregi
DR13 -21.71 dB -39.87 dB 1:22 32-Quaderno musicale di Annalibera: VII. Andantino amoroso e contrapunctus tertius
DR15 -0.83 dB -21.88 dB 1:10 33-Quaderno musicale di Annalibera: VIII. Ritmi
DR12 -18.36 dB -35.35 dB 1:11 34-Quaderno musicale di Annalibera: IX. Colore
DR13 -5.12 dB -23.57 dB 1:47 35-Quaderno musicale di Annalibera: X. Ombre
DR11 -21.15 dB -38.41 dB 1:34 36-Quaderno musicale di Annalibera: XI. Quartina
DR16 -0.83 dB -24.61 dB 8:50 37-Deux Légendes, S. 175: I. St. François d'Assise - La prédication aux oiseaux
DR13 -0.08 dB -19.40 dB 14:59 38-Années de pèlerinage II, S. 161: VII. Après une lecture du Dante - Fantasia quasi sonata
––––––––––––––––––––––––––––––––––––––––

Number of tracks: 38
Official DR value: DR12

Samplerate: 96000 Hz
Channels: 2
Bits per sample: 24
Bitrate: 2208 kbps
Codec: FLAC
================================================================================


Thanks to the Original customer.