Alexander Ramm - Britten: Cello Suites (2018) [Official Digital Download 24/96]

Posted By: SERTiL
Alexander Ramm - Britten: Cello Suites (2018) [Official Digital Download 24/96]

Alexander Ramm - Britten: Cello Suites (2018)
FLAC (tracks) 24-bit/96 kHz | Time - 71:06 minutes | 1.27 GB
Studio Master, Official Digital Download | Artwork: Digital Booklet

Alexander Ramm is the winner of the Silver Medal at the XV Tchaikovsky International Competition, and has garnered prizes at numerous other musical competitions including the Cambridge International Boston Competition, Beijing International Music Competition and the National Music Competition (Moscow). To this day, Mr. Ramm is the only Russian finalist and laureate of the most prestigious Paulo Cello Competition in Helsinki.

Tracklist:
01. Cello Suite No. 1, Op. 72: Canto primo
02. Cello Suite No. 1, Op. 72: I. Fuga
03. Cello Suite No. 1, Op. 72: II. Lamento
04. Cello Suite No. 1, Op. 72: Canto secondo
05. Cello Suite No. 1, Op. 72: III. Serenata
06. Cello Suite No. 1, Op. 72: IV. Marcia
07. Cello Suite No. 1, Op. 72: Canto terzo
08. Cello Suite No. 1, Op. 72: V. Bordone
09. Cello Suite No. 1, Op. 72: VI. Moto perpetuo e canto quarto
10. Cello Suite No. 2, Op. 80: I. Declamato
11. Cello Suite No. 2, Op. 80: II. Fuga
12. Cello Suite No. 2, Op. 80: III. Scherzo
13. Cello Suite No. 2, Op. 80: IV. Andante lento
14. Cello Suite No. 2, Op. 80: V. Ciaccona
15. Cello Suite No. 3, Op. 87: I. Introduzione
16. Cello Suite No. 3, Op. 87: II. Marcia
17. Cello Suite No. 3, Op. 87: III. Canto
18. Cello Suite No. 3, Op. 87: IV. Barcarola
19. Cello Suite No. 3, Op. 87: V. Dialogo
20. Cello Suite No. 3, Op. 87: VI. Fuga
21. Cello Suite No. 3, Op. 87: VII. Recitativo
22. Cello Suite No. 3, Op. 87: VIII. Moto Perpetuo
23. Cello Suite No. 3, Op. 87: IX. Passacaglia

Personnel:
Alexander Ramm, cello

foobar2000 1.3.7 / Dynamic Range Meter 1.1.1
log date: 2018-09-25 14:16:43

––––––––––––––––––––––––––––––––––––––––
Analyzed: Alexander Ramm / Britten: Cello Suites
––––––––––––––––––––––––––––––––––––––––

DR Peak RMS Duration Track
––––––––––––––––––––––––––––––––––––––––
DR11 -3.05 dB -20.01 dB 2:31 01-Cello Suite No. 1, Op. 72 - Canto primo
DR12 -1.14 dB -18.62 dB 4:15 02-Cello Suite No. 1, Op. 72 - I. Fuga
DR11 -3.39 dB -22.09 dB 2:48 03-Cello Suite No. 1, Op. 72 - II. Lamento
DR11 -10.56 dB -26.16 dB 1:06 04-Cello Suite No. 1, Op. 72 - Canto secondo
DR15 -1.12 dB -21.74 dB 2:20 05-Cello Suite No. 1, Op. 72 - III. Serenata
DR15 -0.98 dB -21.64 dB 3:44 06-Cello Suite No. 1, Op. 72 - IV. Marcia
DR11 -5.82 dB -21.99 dB 2:25 07-Cello Suite No. 1, Op. 72 - Canto terzo
DR15 -5.04 dB -26.96 dB 3:04 08-Cello Suite No. 1, Op. 72 - V. Bordone
DR12 -1.13 dB -18.07 dB 3:44 09-Cello Suite No. 1, Op. 72 - VI. Moto perpetuo e canto quarto
DR13 -1.54 dB -20.46 dB 4:39 10-Cello Suite No. 2, Op. 80 - I. Declamato
DR13 -4.54 dB -22.69 dB 4:28 11-Cello Suite No. 2, Op. 80 - II. Fuga
DR12 -1.14 dB -18.18 dB 2:07 12-Cello Suite No. 2, Op. 80 - III. Scherzo
DR16 -1.17 dB -23.67 dB 4:48 13-Cello Suite No. 2, Op. 80 - IV. Andante lento
DR13 -1.20 dB -18.85 dB 7:16 14-Cello Suite No. 2, Op. 80 - V. Ciaccona
DR11 -4.40 dB -22.69 dB 2:22 15-Cello Suite No. 3, Op. 87 - I. Introduzione
DR13 -1.34 dB -20.12 dB 1:47 16-Cello Suite No. 3, Op. 87 - II. Marcia
DR10 -1.83 dB -20.49 dB 1:13 17-Cello Suite No. 3, Op. 87 - III. Canto
DR10 -2.67 dB -20.07 dB 1:22 18-Cello Suite No. 3, Op. 87 - IV. Barcarola
DR12 -1.17 dB -22.33 dB 1:29 19-Cello Suite No. 3, Op. 87 - V. Dialogo
DR11 -2.87 dB -18.22 dB 2:23 20-Cello Suite No. 3, Op. 87 - VI. Fuga
DR14 -3.60 dB -24.11 dB 1:20 21-Cello Suite No. 3, Op. 87 - VII. Recitativo
DR12 -4.05 dB -23.08 dB 0:51 22-Cello Suite No. 3, Op. 87 - VIII. Moto Perpetuo
DR14 -1.01 dB -20.04 dB 9:15 23-Cello Suite No. 3, Op. 87 - IX. Passacaglia
––––––––––––––––––––––––––––––––––––––––

Number of tracks: 23
Official DR value: DR12

Samplerate: 96000 Hz
Channels: 2
Bits per sample: 24
Bitrate: 2688 kbps
Codec: FLAC
================================================================================


Thanks to the Original customer.