Alexandre Tharaud - Pesson, Abrahamsen & Strasnoy: Piano Concertos (2020) [Official Digital Download 24/48]

Posted By: SERTiL
Alexandre Tharaud - Pesson, Abrahamsen & Strasnoy: Piano Concertos (2020) [Official Digital Download 24/48]

Alexandre Tharaud - Pesson, Abrahamsen & Strasnoy: Piano Concertos (2020)
FLAC (tracks) 24-bit/48 kHz | Time - 62:49 minutes | 571 MB
Studio Master, Official Digital Download | Artwork: Digital Booklet

This album brings together world premiere recordings of three aesthetically diverse piano concertos that were written for Alexandre Tharaud. They are Left, alone by the Dane Hans Abrahamsen (b. 1952), Future is a faded song by the Frenchman Gérard Pesson (b.1958) and Kuleshov by the Argentian-born Frenchman Oscar Strasnoy (b.1970). Strasnoy has said that his concerto was “inspired by Alexandre Tharaud’s unique and inimitable phrasing and clarity of playing.” No doubt those words could apply to all three works on the album.

Tracklist:
1. Abrahamsen: Left, alone: I. Very fast (2:36)
2. Abrahamsen: Left, alone: II. Slowly walking (3:27)
3. Abrahamsen: Left, alone: III. Presto fluente (1:25)
4. Abrahamsen: Left, alone: IV. Slowly (0:53)
5. Abrahamsen: Left, alone: V. Prestissimo tempestuoso (1:58)
6. Abrahamsen: Left, alone: VI. In a tempo from another time - In a time for a slow motion - Suddenly in flying time, "Fairy Tale Tim (6:57)
7. Pesson: Future Is a Faded Song (Future Is a Faded Song) (23:38)
8. Strasnoy: Kuleshov (22:01)

foobar2000 1.3.7 / Dynamic Range Meter 1.1.1
log date: 2020-01-17 11:50:19

––––––––––––––––––––––––––––––––––––––––
Analyzed: Alexandre Tharaud / Pesson, Abrahamsen & Strasnoy: Piano Concertos
––––––––––––––––––––––––––––––––––––––––

DR Peak RMS Duration Track
––––––––––––––––––––––––––––––––––––––––
DR15 -3.74 dB -24.40 dB 2:36 01-Left, alone: I. Very fast
DR17 -7.67 dB -32.09 dB 3:27 02-Left, alone: II. Slowly walking
DR14 -16.22 dB -33.58 dB 1:25 03-Left, alone: III. Presto fluente
DR9 -30.76 dB -46.21 dB 0:53 04-Left, alone: IV. Slowly
DR12 -0.11 dB -26.13 dB 1:58 05-Left, alone: V. Prestissimo tempestuoso
DR15 -14.18 dB -34.10 dB 6:57 06-Left, alone: VI. In a tempo from another time - In a time for a slow motion - Suddenly in flying time, "Fairy Tale Time"
DR18 -3.66 dB -27.69 dB 23:38 07-Future Is a Faded Song
DR19 -1.42 dB -27.04 dB 22:01 08-Kuleshov
––––––––––––––––––––––––––––––––––––––––

Number of tracks: 8
Official DR value: DR15

Samplerate: 48000 Hz
Channels: 2
Bits per sample: 24
Bitrate: 1266 kbps
Codec: FLAC
================================================================================


Thanks to the Original customer.