Tags
Language
Tags
February 2023
Su Mo Tu We Th Fr Sa
29 30 31 1 2 3 4
5 6 7 8 9 10 11
12 13 14 15 16 17 18
19 20 21 22 23 24 25
26 27 28 1 2 3 4

Ali Hirèche - Schumann - Davidsbündlertänze Op. 6 & Kreisleriana Op. 16 (2021) [Official Digital Download 24/96]

Posted By: pyatak
Ali Hirèche - Schumann - Davidsbündlertänze Op. 6 & Kreisleriana Op. 16 (2021) [Official Digital Download 24/96]

Ali Hirèche - Schumann - Davidsbündlertänze Op. 6 & Kreisleriana Op. 16 (2021) [Official Digital Download 24/96]
FLAC (tracks) 24-bit/96 kHz | Front Cover | Time - 74:15 minutes | 1,11 GB
Classical | Label: Bion Musique, Official Digital Download

Ali Hirèche was born in 1976 in Paris, where he started his musical training with the Spanish pianist and composer Antonio Ruiz-Pipó. At fifteen he moved to Italy to continue his studies at the Conservatorio Giuseppe Verdi under Ricardo Risaliti. In 1997 he graduated with top marks and cum laude and enrolled at the Imola International Academy Foundation “Incontri con il Maestro” where he had the opportunity to take part in the master classes of Alexander Lonquich, Andrei Jazinsky and Louis Lortie. He later attended the Piano Foundation in Cadenabbia where he specialized with such famous pianists as Andreas Staier, Dimitri Baschkyrov, Charles Rosen, Peter Frankl, Boris Berman.
From a very early age he gave both recitals and orchestral concerts in Italy, Germany and Austria and took part in a number of international competitions, winning First Prize at the Concorso Internazionale Rovere D’Oro (1993) and the Concorso Internazionale di Senigallia (1995), Critics’ Choice Award at the Concorso Europeo di Taranto (1998), Second Prize at the Concorso Internazionale Luciano Gante, and First Prize at the Premio Venezia (1999). He went on to win Firstp Prize at the Mée sur Seine International Meeting for award winners of International competitions which led to engagements in top concert venues: Milan, Venice (PalaFenice, Teatro Malibran), Palermo (Teatro Politeama with the Orchestra Sinfonica Siciliana), Bologna (Teatro Comunale for the Bologna Festival), Padova, Varese, Rome, Festival of Riva del Garda with the Junge Philharmonie Salzburg orchestra…
After spending several years in Italy Hirèche returned to his native France, appearing frequently at the Salle Cortot and in such festivals as Piano en Valois, Cordes sur Ciel, Deauville, Pays Briard. In 2007 he made his South African debut, with the Durban Symphony Orchestra conducted by Nicholas Cleobury.
His performances have been broadcast on prestigious radio channels such as France Musique, Rai and Radio Classica (he created and produced the programme “Il Pianista”).
Recent CDs, all given glowing revues by the international press, include Paganini’s Variations on a Theme and other Variations by Brahms, Chopin’s 24 Etudes, and Ventanas, an anthology of music by Spanish composers (Mompou, Falla and Ruiz Pipó). An all-Schumann CD featuring Kreisleriana and Davidsbündlertänze is to be released shortly.

TRACKLIST

01. Ali Hirèche - Davidsbündlertänze, Op. 6: I. Lebhaft
02. Ali Hirèche - Davidsbündlertänze, Op. 6: II. Innig
03. Ali Hirèche - Davidsbündlertänze, Op. 6: III. Mit Humor
04. Ali Hirèche - Davidsbündlertänze, Op. 6: IV. Ungeduldig
05. Ali Hirèche - Davidsbündlertänze, Op. 6: V. Einfach
06. Ali Hirèche - Davidsbündlertänze, Op. 6: Vi. Sehr rasch
07. Ali Hirèche - Davidsbündlertänze, Op. 6: VII. Nicht Schnell
08. Ali Hirèche - Davidsbündlertänze, Op. 6: VIII. Frisch
09. Ali Hirèche - Davidsbündlertänze, Op. 6: IX. Lebhaft
10. Ali Hirèche - Davidsbündlertänze, Op. 6: X. Balladenmässig. Sehr rasch
11. Ali Hirèche - Davidsbündlertänze, Op. 6: XI. Einfach
12. Ali Hirèche - Davidsbündlertänze, Op. 6: XII. Mit Humor
13. Ali Hirèche - Davidsbündlertänze, Op. 6: XIII. Wild und lustig
14. Ali Hirèche - Davidsbündlertänze, Op. 6: XIV. Zart und singend
15. Ali Hirèche - Davidsbündlertänze, Op. 6: XV. Frisch. Etwas bewegter
16. Ali Hirèche - Davidsbündlertänze, Op. 6: XVI. Mit gutem Humor
17. Ali Hirèche - Davidsbündlertänze, Op. 6: XVII. Wie aus der Ferne
18. Ali Hirèche - Davidsbündlertänze, Op. 6: XVIII. Nicht schnell
19. Ali Hirèche - Kreisleriana, Op. 16: I. Äusserst bewegt
20. Ali Hirèche - Kreisleriana, Op. 16: II. Sehr innig und nicht zu rasch
21. Ali Hirèche - Kreisleriana, Op. 16: III. Sehr aufgeregt
22. Ali Hirèche - Kreisleriana, Op. 16: IV. Sehr langsam
23. Ali Hirèche - Kreisleriana, Op. 16: V. Sehr lebhaft
24. Ali Hirèche - Kreisleriana, Op. 16: Vi. Sehr langsam
25. Ali Hirèche - Kreisleriana, Op. 16: VII. Sehr rasch
26. Ali Hirèche - Kreisleriana, Op. 16: VIII. Schnell und spielend

foobar2000 1.6.2 / Dynamic Range Meter 1.1.1
log date: 2021-06-08 17:18:24

––––––––––––––––––––––––––––––––––––––––
Analyzed: Ali Hirèche / Schumann: Davidsbündlertänze Opus VI & Kreisleriana Opus XVI (Ali Hirèche Piano)
––––––––––––––––––––––––––––––––––––––––

DR Peak RMS Duration Track
––––––––––––––––––––––––––––––––––––––––
DR14 -4.60 dB -24.69 dB 1:52 01-Davidsbündlertänze, Op. 6: I. Lebhaft
DR12 -19.41 dB -35.84 dB 1:41 02-Davidsbündlertänze, Op. 6: II. Innig
DR12 -4.17 dB -20.93 dB 1:24 03-Davidsbündlertänze, Op. 6: III. Mit Humor
DR10 -6.20 dB -19.97 dB 0:47 04-Davidsbündlertänze, Op. 6: IV. Ungeduldig
DR13 -17.84 dB -36.31 dB 1:56 05-Davidsbündlertänze, Op. 6: V. Einfach
DR12 -2.92 dB -20.09 dB 1:51 06-Davidsbündlertänze, Op. 6: Vi. Sehr rasch
DR14 -8.90 dB -30.20 dB 3:43 07-Davidsbündlertänze, Op. 6: VII. Nicht Schnell
DR11 -3.97 dB -19.28 dB 1:01 08-Davidsbündlertänze, Op. 6: VIII. Frisch
DR10 -9.65 dB -24.02 dB 1:19 09-Davidsbündlertänze, Op. 6: IX. Lebhaft
DR11 -6.34 dB -21.94 dB 1:52 10-Davidsbündlertänze, Op. 6: X. Balladenmässig. Sehr rasch
DR12 -17.21 dB -33.54 dB 2:14 11-Davidsbündlertänze, Op. 6: XI. Einfach
DR13 -5.54 dB -23.95 dB 0:41 12-Davidsbündlertänze, Op. 6: XII. Mit Humor
DR12 -1.84 dB -20.52 dB 2:57 13-Davidsbündlertänze, Op. 6: XIII. Wild und lustig
DR13 -18.05 dB -35.66 dB 2:45 14-Davidsbündlertänze, Op. 6: XIV. Zart und singend
DR12 -4.61 dB -22.36 dB 1:56 15-Davidsbündlertänze, Op. 6: XV. Frisch. Etwas bewegter
DR14 -3.25 dB -22.56 dB 1:50 16-Davidsbündlertänze, Op. 6: XVI. Mit gutem Humor
DR15 -5.57 dB -28.15 dB 4:14 17-Davidsbündlertänze, Op. 6: XVII. Wie aus der Ferne
DR13 -18.50 dB -37.78 dB 2:31 18-Davidsbündlertänze, Op. 6: XVIII. Nicht schnell
DR11 -4.58 dB -20.90 dB 2:48 19-Kreisleriana, Op. 16: I. Äusserst bewegt
DR15 -5.71 dB -27.19 dB 8:58 20-Kreisleriana, Op. 16: II. Sehr innig und nicht zu rasch
DR12 -3.78 dB -22.77 dB 5:08 21-Kreisleriana, Op. 16: III. Sehr aufgeregt
DR14 -16.17 dB -35.29 dB 3:58 22-Kreisleriana, Op. 16: IV. Sehr langsam
DR13 -2.97 dB -25.25 dB 3:37 23-Kreisleriana, Op. 16: V. Sehr lebhaft
DR15 -7.08 dB -29.53 dB 4:37 24-Kreisleriana, Op. 16: Vi. Sehr langsam
DR12 -4.49 dB -21.00 dB 2:24 25-Kreisleriana, Op. 16: VII. Sehr rasch
DR12 -5.43 dB -22.96 dB 3:51 26-Kreisleriana, Op. 16: VIII. Schnell und spielend
––––––––––––––––––––––––––––––––––––––––

Number of tracks: 26
Official DR value: DR13

Samplerate: 96000 Hz
Channels: 2
Bits per sample: 24
Bitrate: 2238 kbps
Codec: FLAC
================================================================================



Thanks to the Original customer.