Tags
Language
Tags

Allison Russell - Outside Child (2021) [Official Digital Download 24/88]

Posted By: pyatak
Allison Russell - Outside Child (2021) [Official Digital Download 24/88]

Allison Russell - Outside Child (2021) [Official Digital Download 24/88]
FLAC (tracks) 24-bit/88.2 kHz | Front Cover | Time - 49:04 minutes | 940 MB
Pop, Singer-Songwriter | Label: Fantasy, Official Digital Download

“Allison’s new album, Outside Child, draws water from the dark well of a violent past. The songs themselves ––though iron-hard in their concerns–– are exultant: exercising haunted dream-like clean bedsheets snapped and hung out into broad daylight, and with the romantic poet’s lust for living and audacity of endurance.”
- Joe Henry (Songwriter/Poet)

Born and raised in Montreal, Allison Russell imbues her music with the colors of her city – the light, the landscape, the language – but also the trauma that she suffered there. It is a heartbreaking reflection on a childhood no one should have to endure, and at the same time a powerful reclamation – asserted from a place of healing, of motherhood, of partnership – and from a new home made in Nashville. Outside Child features contributions from many of the artistic family members she has found there including Yola, Erin Rae, The McCrary Sisters, Ruth Moody, producer Dan Knobler, Jamie Dick, Joe Pisapia, and her partner JT Nero. Outside Child is not only a radical reclamation of a traumatic childhood and lost home, it is a lantern light for survivors of all stripes – a fervent reminder of the eleventh hour, resuscitative power of art.

"Outside Child is about resilience, survival, transcendence, the redemptive power of art, community, connection, and chosen family.”
- Allison Russell

TRACKLIST

1. Allison Russell - Montreal
2. Allison Russell - Nightflyer
3. Allison Russell - Persephone
4. Allison Russell - 4th Day Prayer
5. Allison Russell - The Runner
6. Allison Russell - Hy-Brasil
7. Allison Russell - The Hunters
8. Allison Russell - All Of The Women
9. Allison Russell - Poison Arrow
10. Allison Russell - Little Rebirth
11. Allison Russell - Joyful Motherfuckers

foobar2000 1.6.2 / Dynamic Range Meter 1.1.1
log date: 2021-05-22 09:57:57

––––––––––––––––––––––––––––––––––––––––
Analyzed: Allison Russell / Outside Child
––––––––––––––––––––––––––––––––––––––––

DR Peak RMS Duration Track
––––––––––––––––––––––––––––––––––––––––
DR10 -0.65 dB -13.50 dB 3:46 01-Montreal
DR10 -0.65 dB -12.95 dB 4:56 02-Nightflyer
DR8 -0.65 dB -10.51 dB 4:23 03-Persephone
DR8 -0.65 dB -10.62 dB 4:11 04-4th Day Prayer
DR8 -0.63 dB -10.10 dB 4:10 05-The Runner
DR8 -0.65 dB -11.89 dB 5:36 06-Hy-Brasil
DR7 -0.65 dB -10.42 dB 5:32 07-The Hunters
DR8 -0.65 dB -11.65 dB 5:24 08-All Of The Women
DR10 -0.64 dB -12.27 dB 3:58 09-Poison Arrow
DR7 -0.64 dB -11.97 dB 4:02 10-Little Rebirth
DR10 -0.65 dB -13.86 dB 3:12 11-Joyful Motherfuckers
––––––––––––––––––––––––––––––––––––––––

Number of tracks: 11
Official DR value: DR9

Samplerate: 88200 Hz
Channels: 2
Bits per sample: 24
Bitrate: 2655 kbps
Codec: FLAC
================================================================================



Thanks to the Original customer.