Amarcord - Tenebrae (2017) [Official Digital Download]

Posted By: SERTiL
Amarcord - Tenebrae (2017) [Official Digital Download]

Amarcord - Tenebrae (2017)
FLAC (tracks) 24-bit/44.1 kHz | Time - 79:24 minutes | 721 MB
Studio Master, Official Digital Download | Artwork: Digital Booklet

It appears to be amarcord’s “personal Mass” for the ensemble’s 25th anniversary and “our most serious reflection upon the world,” so tenor Wolfram Lattke. On the new album “Tenebrae,” the two-time prizewinners of the ECHO Klassik Prize look at the expanses of their repertoire and repeatedly captivate with their distinctive sound and breathtaking homogeneity. amarcord succeeds in forging an arch fraught with tension from early monody and polyphony through Renaissance polyphony by grandmasters such as Johannes Ockeghem and Thomas Tallis to contemporary pieces written expressly for the ensemble by Sydney Boquiren, Ivan Moody, and Leipzig composer Marcus Ludwig. Shadow and light, sorrow and joy, despair and hope lie close together, yet between them is hidden a certain unrest, combined with strong emotions, which is captured by the music on this album. Even if the album, with the eponymous Celan poem “Tenebrae” in a setting by Marcus Ludwig, leaves the listener with unanswered questions – the members of amaracord have found the unifying elements, the harmony in collective music-making and performing, allowing them to coalesce into one of the world’s best vocal ensembles.

Tracklist:
01. Te lucis ante terminum (Festal Tone)
02. Antiphon: In mandatis eius
03. Psalmus quarti toni Beatus vir
04. Antiphon: In mandatis eius (Wittenberg 1540)
05. Messe de Notre Dame: Kyrie
06. Gloria
07. Graduale: Liberasti nos
08. Kyrie Gloria Credo à 5: Credo
09. O Crux splendidior (Liber usualis)
10. Apokathilosis
11. Antiphonale Monasticum "Da Pacem Domine"
12. Antiphona Super Nunc Dimittis "Da Pacem Domine"
13. Mass for Five Voices: Sanctus
14. Otche nash
15. Peccantem me quotidie
16. Jesus Christus, unser Heiland
17. The Lamb
18. Agnus Dei
19. Offertorium De profundis
20. De profundis
21. Tenebrae

foobar2000 1.3.7 / Dynamic Range Meter 1.1.1
log date: 2017-12-21 10:40:23

––––––––––––––––––––––––––––––––––––––––
Analyzed: Amarcord / Tenebrae
––––––––––––––––––––––––––––––––––––––––

DR Peak RMS Duration Track
––––––––––––––––––––––––––––––––––––––––
DR11 -5.28 dB -23.34 dB 2:19 01-Te lucis ante terminum (Festal Tone)
DR10 -5.56 dB -22.45 dB 1:33 02-Antiphon: In mandatis eius
DR10 -11.23 dB -24.97 dB 3:46 03-Psalmus quarti toni Beatus vir
DR9 -9.32 dB -24.64 dB 0:41 04-Antiphon: In mandatis eius (Wittenberg 1540)
DR12 -2.38 dB -18.42 dB 6:31 05-Messe de Notre Dame: Kyrie
DR11 -0.30 dB -15.64 dB 6:50 06-Gloria
DR13 -8.63 dB -27.51 dB 3:59 07-Graduale: Liberasti nos
DR14 -2.51 dB -21.49 dB 6:08 08-Kyrie Gloria Credo à 5: Credo
DR12 -10.95 dB -29.60 dB 4:48 09-O Crux splendidior (Liber usualis)
DR14 -0.30 dB -20.40 dB 8:51 10-Apokathilosis
DR10 -12.12 dB -26.75 dB 0:40 11-Antiphonale Monasticum "Da Pacem Domine"
DR14 -0.30 dB -19.13 dB 2:30 12-Antiphona Super Nunc Dimittis "Da Pacem Domine"
DR14 -0.30 dB -19.28 dB 4:12 13-Mass for Five Voices: Sanctus
DR13 -5.12 dB -26.99 dB 3:04 14-Otche nash
DR13 -0.30 dB -18.44 dB 4:46 15-Peccantem me quotidie
DR13 -3.63 dB -20.46 dB 1:26 16-Jesus Christus, unser Heiland
DR12 -10.50 dB -26.87 dB 3:39 17-The Lamb
DR10 -7.53 dB -23.80 dB 3:19 18-Agnus Dei
DR10 -14.35 dB -28.51 dB 0:31 19-Offertorium De profundis
DR12 -2.99 dB -20.05 dB 6:01 20-De profundis
DR14 -0.30 dB -20.50 dB 3:57 21-Tenebrae
––––––––––––––––––––––––––––––––––––––––

Number of tracks: 21
Official DR value: DR12

Samplerate: 44100 Hz
Channels: 2
Bits per sample: 24
Bitrate: 1232 kbps
Codec: FLAC
================================================================================


Thanks to the Original customer.