Andreas Dopp - Sunset in Stereo (2020) [Official Digital Download]

Posted By: pyatak
Andreas Dopp - Sunset in Stereo (2020) [Official Digital Download]

Andreas Dopp - Sunset in Stereo (2020) [Official Digital Download]
FLAC (tracks) 24-bit/44.1 kHz | Front Cover | Time - 44:22 minutes | 460 MB
Rock | Label: Blacklisted Records, Official Digital Download

In Sunset in Stereo, Andreas Dopp recasts the melodic guitar sound of the early ‘70s in a fusion of urban beats and shimmering soundscapes. The album’s musical snapshots lead the listener along a dreamy and evocative path of reminiscences and imagery stretching from sun-dappled rocks to the horizon. On each track, different facets of Dopp’s personality and skill shine through – composer, producer, and superbly expressive performer.

Picture yourself at the beach in summer. The evenings are sultry, and the most beautiful spot at midnight is a solitary outcrop overlooking the bay. The scent of wildflowers blends with spices from an outdoor feast, and the cicadas usher in a gentle breeze off the ocean. The sounds of a distant club or beach party intermingle with recollections of the preceding days – a flickering mirage of sun, heat and water.

These are some of the moods evoked by Hamburg-based guitarist Andreas Dopp on his new album Sunset in Stereo – and the pieces were composed while visiting the island of Ibiza. Rays of Spanish sun stream into each of the twelve original instrumental tracks. The refined guitar playing and elegant grooves are simultaneously personal and accessible, and never revert to the incidental.

Sunset in Stereo draws much of its inspiration from the timeless and carefree spirit of the late ‘60s and early ‘70s. Guitar fans will notice Andreas’ fondness for the sounds of that era, strong traces of guitarists Peter Green and Pat Metheny, along with hints of tracks such as Albatross and Samba Pa Ti. After rhythmically-floating intros, the listener often lands on a classy four-on-the-floor pulse, encounters sophisticated piano stylings, or is engulfed in shimmering ‘80s soundscapes.

While the music embodies all these elements, it also looks to the future. Andreas concisely arranges and varies the different elements to achieve rich and lively textures – rendered complete by the weaving and soaring solo guitar. The result successfully conveys the listener to exotic places where attractive sights and sounds await. Sunset in Stereo as album is a self-contained and blissful oasis.

To make his musical vision a reality, Andreas draws on the expertise of many musicians he works with on a regular basis in live performances and in the studio. In parallel to this, he is active as composer and producer, and his experience working on film soundtracks shines through in the conceptualisation and realisation of his own solo instrumental works.

TRACKLIST

1. Andreas Dopp - Good Morning Ibiza
2. Andreas Dopp - On the Rooftop
3. Andreas Dopp - Fireflies
4. Andreas Dopp - Sunset in Stereo
5. Andreas Dopp - Smile
6. Andreas Dopp - The Great Green
7. Andreas Dopp - Shooting Stars
8. Andreas Dopp - A Thousand Lights
9. Andreas Dopp - Electric Island
10. Andreas Dopp - On a Cloudy Day
11. Andreas Dopp - Un Cortado por Favor
12. Andreas Dopp - In Your Arms

foobar2000 1.3.16 / Dynamic Range Meter 1.1.1
log date: 2020-06-02 11:02:09

––––––––––––––––––––––––––––––––––––––––
Analyzed: Andreas Dopp / Sunset in Stereo
––––––––––––––––––––––––––––––––––––––––

DR Peak RMS Duration Track
––––––––––––––––––––––––––––––––––––––––
DR8 0.00 dB -10.36 dB 2:49 01-Good Morning Ibiza
DR8 0.00 dB -10.56 dB 4:20 02-On the Rooftop
DR9 0.00 dB -10.94 dB 3:33 03-Fireflies
DR9 0.00 dB -10.71 dB 4:05 04-Sunset in Stereo
DR9 0.00 dB -10.45 dB 2:55 05-Smile
DR9 0.00 dB -11.01 dB 3:59 06-The Great Green
DR8 0.00 dB -11.36 dB 4:02 07-Shooting Stars
DR11 0.00 dB -12.82 dB 3:51 08-A Thousand Lights
DR9 0.00 dB -10.57 dB 3:22 09-Electric Island
DR11 0.00 dB -13.06 dB 3:44 10-On a Cloudy Day
DR9 0.00 dB -10.48 dB 3:22 11-Un Cortado por Favor
DR11 0.00 dB -13.38 dB 4:24 12-In Your Arms
––––––––––––––––––––––––––––––––––––––––

Number of tracks: 12
Official DR value: DR9

Samplerate: 44100 Hz
Channels: 2
Bits per sample: 24
Bitrate: 1470 kbps
Codec: FLAC
================================================================================



Thanks to the Original customer.