Tags
Language
Tags

Angela Gheorghiu - Plaisir d'Amour (2019) [Official Digital Download 24/96]

Posted By: SERTiL
Angela Gheorghiu - Plaisir d'Amour (2019) [Official Digital Download 24/96]

Angela Gheorghiu - Plaisir d'Amour (2019)
FLAC (tracks) 24-bit/96 kHz | Time - 67:06 minutes | 1.07 GB
Studio Master, Official Digital Download | Artwork: Front Cover

Angela Gheorghiu returns to Decca to celebrate the 25th anniversary of her legendary La Traviata with Sir Georg Solti

A 23-track album featuring rare and classic songs never before recorded by Gheorghiu

Winner of five Gramophone Awards, twice recipient of Female Artist of the Year from the Classic Brits, in 2018 she received the ‘Victoire d'Honneur’ award in France

European, US and China tour dates across 2019/2020

Accompanied by her compatriot Alexandra Dariescu the recital opens with Romanian songs and includes such classics as Apres un reve, Tosti’s ideale, Strauss’ Morgen and the Chopin Tristesse

Tracklist:
1. Cântecul fluieraşului din feeria (Arr. Tudor) (2:40)
2. Mândruliță de la munte (3:00)
3. Nuit d'étoiles, L. 4 (3:08)
4. Beau soir, L. 6 (2:42)
5. Trois Mélodies, Op. 7 : 1. Après un rêve (2:58)
6. 5 Mélodies de Venise, Op. 58 : 1. Mandoline (1:50)
7. 6 Romances, Op. 8 : 5. Son (1:27)
8. 12 Romances, Op. 14 : 11. Vesenniye vody (2:17)
9. La molinara : "Nel cor più non mi sento" (2:15)
10. Vaga luna che inargenti (4:02)
11. Ideale (Arr. Arvinte) (3:31)
12. Sogno (2:55)
13. La Serenata (3:36)
14. Le grillon (2:48)
15. 12 Études, Op. 10 : 3. Tristesse (Arr. Litvinne) (3:50)
16. Plaisir d'amour (3:45)
17. Chansons grises : 5. L'heure exquise (2:25)
18. 4 Lieder, Op. 27, TrV 170 : 4. Morgen! (3:23)
19. 4 Lieder, Op. 27, TrV 170 : 2. Cäcilie (2:20)
20. The Bohemian Girl : "I dreamt I dwelt in marble halls" (Arr. Tudor) (3:27)
21. Cine m-aude cântând (3:51)
22. Floresta do Amazonas, W551 : 4. Melodia Sentimental, W556 (3:18)
23. Canciones clásicas españolas : 6. El vito (1:50)

Personnel:
Angela Gheorghiu (soprano)
Alexandra Dariescu (piano)

foobar2000 1.3.7 / Dynamic Range Meter 1.1.1
log date: 2019-11-15 12:42:30

––––––––––––––––––––––––––––––––––––––––
Analyzed: Angela Gheorghiu / Plaisir d'Amour
––––––––––––––––––––––––––––––––––––––––

DR Peak RMS Duration Track
––––––––––––––––––––––––––––––––––––––––
DR11 -2.22 dB -20.32 dB 2:40 01-Stephănescu: Cântecul fluieraşului din feeria (Arr. Tudor)
DR13 -7.33 dB -25.30 dB 3:00 02-Stephănescu: Mândruliță de la munte
DR14 -1.89 dB -22.76 dB 3:08 03-Debussy: Nuit d'étoiles, L. 4
DR14 -3.63 dB -25.67 dB 2:42 04-Debussy: Beau soir, L. 6
DR12 -2.69 dB -25.48 dB 2:58 05-1. Après un rêve
DR13 -13.48 dB -30.78 dB 1:50 06-1. Mandoline
DR12 -1.70 dB -20.84 dB 1:27 07-5. Son
DR12 -0.41 dB -16.45 dB 2:17 08-11. Vesenniye vody
DR14 -7.84 dB -26.84 dB 2:15 09-"Nel cor più non mi sento"
DR14 -10.70 dB -29.28 dB 4:02 10-Bellini: Vaga luna che inargenti
DR15 -1.92 dB -22.98 dB 3:31 11-Tosti: Ideale (Arr. Arvinte)
DR13 -5.50 dB -25.55 dB 2:55 12-Tosti: Sogno
DR12 -2.59 dB -23.09 dB 3:36 13-Tosti: La Serenata
DR13 -8.29 dB -26.77 dB 2:48 14-Rameau: Le grillon
DR13 -5.15 dB -26.27 dB 3:50 15-3. Tristesse (Arr. Litvinne)
DR14 -8.99 dB -28.13 dB 3:45 16-Martini: Plaisir d'amour
DR14 -13.46 dB -33.43 dB 2:25 17-5. L'heure exquise
DR14 -11.99 dB -33.55 dB 3:23 18-4. Morgen!
DR11 -0.50 dB -18.51 dB 2:20 19-2. Cäcilie
DR14 -4.97 dB -26.11 dB 3:27 20-"I dreamt I dwelt in marble halls" (Arr. Tudor)
DR13 -7.31 dB -27.00 dB 3:51 21-Brediceanu: Cine m-aude cântând
DR13 -6.02 dB -25.75 dB 3:18 22-4. Melodia Sentimental, W556
DR13 -0.81 dB -21.88 dB 1:50 23-6. El vito
––––––––––––––––––––––––––––––––––––––––

Number of tracks: 23
Official DR value: DR13

Samplerate: 96000 Hz
Channels: 2
Bits per sample: 24
Bitrate: 2281 kbps
Codec: FLAC
================================================================================


Thanks to the Original customer.