Tags
Language
Tags

Anna Prohaska & Julius Drake - Paradise Lost (2020) [Official Digital Download 24/96]

Posted By: pyatak
Anna Prohaska & Julius Drake - Paradise Lost (2020) [Official Digital Download 24/96]

Anna Prohaska & Julius Drake - Paradise Lost (2020) [Official Digital Download 24/96]
FLAC (tracks) 24-bit/96 kHz | Front Cover | Time - 01:03:47 minutes | 0,99 GB
Classical | Label: Alpha Classics, Official Digital Download

The gestation of this project lasted two years. Anna Prohaska and Julius Drake finally concentrated their research on the themes of Eve, Paradise and banishment. Some songs were obvious choices, such as Fauré’s Paradis, in which God appears to Eve and asks her to name each flower and animal, or Purcell’s Sleep, Adam, sleep with its references to Genesis. But Anna Prohaska also wished to illustrate the cliché of the woman who brought original sin into the world and her status as a tempter who leads man astray, as in Brahms’s Salamander, Wolf’s Die Bekehrte or Ravel’s Air du Feu. In Das Paradies und die Peri, Schumann conjures up the image of Syria’s rose-covered plains. Bernstein also transports us to the desert with Silhouette. John Milton’s seventeenth-century masterpiece Paradise Lost was the inspiration for Charles Ives and Benjamin Britten, also featured in this very rich programme that constitutes an invitation to travel and reflection.

TRACKLIST

1. Anna Prohaska & Julius Drake – Trois chansons, M. 69: II. Trois beaux oiseaux du Paradis (02:39)
2. Anna Prohaska & Julius Drake – Silhouette (Galilee) (01:54)
3. Anna Prohaska & Julius Drake – Harawi: II. Bonjour toi, colombe verte (03:44)
4. Anna Prohaska & Julius Drake – La chanson d'Ève, Op. 95: I. Paradis (07:20)
5. Anna Prohaska & Julius Drake – Apparition, I. 53 (03:34)
6. Anna Prohaska & Julius Drake – Clair comme le jour: I. Ce qu'Adam dit à Ève (04:33)
7. Anna Prohaska & Julius Drake – Pastorale (01:33)
8. Anna Prohaska & Julius Drake – Goethe Lieder: XXVI. Die Spröde (01:51)
9. Anna Prohaska & Julius Drake – Goethe Lieder: XXVII. Die Bekehrte (02:50)
10. Anna Prohaska & Julius Drake – 5 Lieder, Op. 107: II. Salamander (00:51)
11. Anna Prohaska & Julius Drake – Kinderlieder: VI. Gib mir den Apfel (01:00)
12. Anna Prohaska & Julius Drake – Songs and Proverbs of William Blake, Op. 74: A Poison Tree (03:11)
13. Anna Prohaska & Julius Drake – Alte Weisen, Op. 33: VI. Röschen biẞ den Apfel an (00:43)
14. Anna Prohaska & Julius Drake – L'Enfant et les Sortilèges, M. 71: Acte I, Tableau I. Air du feu (01:50)
15. Anna Prohaska & Julius Drake – 6 Romances, Op. 38: VI. A-oo (02:14)
16. Anna Prohaska & Julius Drake – 114 Songs: II. Evening (01:43)
17. Anna Prohaska & Julius Drake – Sleep, Adam, Sleep, Z195 (01:36)
18. Anna Prohaska & Julius Drake – Auflösung, D. 807 (02:11)
19. Anna Prohaska & Julius Drake – Abendstern, D. 806 (02:24)
20. Anna Prohaska & Julius Drake – Das Paradies und die Peri, Op. 50: XXI. Jetzt sank des Abends goldner Schein (04:35)
21. Anna Prohaska & Julius Drake – Liederkreis, Op. 24: VI. Warte, warte wilder Schiffmann (02:06)
22. Anna Prohaska & Julius Drake – Fünf Elegien: XXIII. Jeden Morgen, mein Brot zu verdienen (01:10)
23. Anna Prohaska & Julius Drake – Fünf Elegien: XXIV. Diese Stadt hat mich belehrt (01:19)
24. Anna Prohaska & Julius Drake – Lieder aus, Des Knaben Wunderhorn': V. Das irdische Leben (02:45)
25. Anna Prohaska & Julius Drake – Three Early Songs: III. Wind Elegy (02:52)
26. Julius Drake & Anna Prohaska – I Will Give My Love an Apple (01:19)

foobar2000 1.3.16 / Dynamic Range Meter 1.1.1
log date: 2020-04-12 23:24:48

––––––––––––––––––––––––––––––––––––––––
Analyzed: Anna Prohaska / Paradise Lost
––––––––––––––––––––––––––––––––––––––––

DR Peak RMS Duration Track
––––––––––––––––––––––––––––––––––––––––
DR14 -11.66 dB -31.40 dB 2:39 01-Trois chansons, M. 69: II. Trois beaux oiseaux du Paradis
DR12 -9.50 dB -27.10 dB 1:54 02-Silhouette (Galilee)
DR13 -10.33 dB -27.55 dB 3:45 03-Harawi: II. Bonjour toi, colombe verte
DR14 -10.32 dB -30.87 dB 7:20 04-La chanson d'Ève, Op. 95: I. Paradis
DR14 -5.60 dB -25.79 dB 3:34 05-Apparition, I. 53
DR13 -8.95 dB -29.29 dB 4:33 06-Clair comme le jour: I. Ce qu'Adam dit à Ève
DR14 -11.91 dB -31.00 dB 1:33 07-Pastorale
DR12 -8.77 dB -25.68 dB 1:52 08-Goethe Lieder: XXVI. Die Spröde
DR12 -11.23 dB -29.32 dB 2:50 09-Goethe Lieder: XXVII. Die Bekehrte
DR11 -4.18 dB -22.30 dB 0:51 10-5 Lieder, Op. 107: II. Salamander
DR10 -13.24 dB -28.90 dB 1:01 11-Kinderlieder: VI. Gib mir den Apfel
DR13 -4.40 dB -25.48 dB 3:12 12-Songs and Proverbs of William Blake, Op. 74: A Poison Tree
DR15 -12.93 dB -32.25 dB 0:43 13-Alte Weisen, Op. 33: VI. Röschen biẞ den Apfel an
DR14 -6.02 dB -24.41 dB 1:50 14-L'Enfant et les Sortilèges, M. 71: Acte I, Tableau I. Air du feu
DR12 -3.67 dB -22.69 dB 2:15 15-6 Romances, Op. 38: VI. A-oo
DR12 -18.54 dB -35.22 dB 1:44 16-114 Songs: II. Evening
DR13 -10.12 dB -27.82 dB 1:37 17-Sleep, Adam, Sleep, Z195
DR12 -6.65 dB -24.13 dB 2:11 18-Auflösung, D. 807
DR13 -10.71 dB -30.35 dB 2:25 19-Abendstern, D. 806
DR14 -10.42 dB -29.40 dB 4:35 20-Das Paradies und die Peri, Op. 50: XXI. Jetzt sank des Abends goldner Schein
DR14 -1.89 dB -23.77 dB 2:06 21-Liederkreis, Op. 24: VI. Warte, warte wilder Schiffmann
DR13 -5.48 dB -29.09 dB 1:10 22-Fünf Elegien: XXIII. Jeden Morgen, mein Brot zu verdienen
DR12 -7.72 dB -26.54 dB 1:19 23-Fünf Elegien: XXIV. Diese Stadt hat mich belehrt
DR15 -1.95 dB -25.96 dB 2:46 24-Lieder aus, Des Knaben Wunderhorn': V. Das irdische Leben
DR14 -10.75 dB -33.20 dB 2:53 25-Three Early Songs: III. Wind Elegy
DR13 -11.69 dB -32.48 dB 1:19 26-I Will Give My Love an Apple
––––––––––––––––––––––––––––––––––––––––

Number of tracks: 26
Official DR value: DR13

Samplerate: 96000 Hz
Channels: 2
Bits per sample: 24
Bitrate: 2044 kbps
Codec: FLAC
================================================================================



Thanks to the Original customer.