Anthony Bailes - Galilei: Intavolatura di liuto (2014) [Official Digital Download 24/88]

Posted By: SERTiL
Anthony Bailes - Galilei: Intavolatura di liuto (2014) [Official Digital Download 24/88]

Anthony Bailes - Galilei: Intavolatura di liuto (2014)
FLAC (tracks) 24-bit/88.2 kHz | Time - 65:46 minutes | 1.19 GB
Studio Master, Official Digital Download | Artwork: Digital Booklet

Michelagnolo Galilei, the younger brother of the famous Galileo, was a professional lutenist at the court of Maximillian of Bavaria. In this, he followed in the footsteps of his father, Vincenzo, also a lutenist but equally renowed as a theorist and one of the initiators of Count Bardi’s influential Florentine “Camerata”. Both Michelagnolo and Galileo were taught to play the lute by their father and the music included in this programme would have been known to and played by both brothers. In 1620 Galileo helped finance Michelagnolo’s Il primo libro d’intavolatura di liuto. For this reason, most of the pieces for this project have been chosen from this publication. Despite being relatively unknown, it contains repertoire of high musical quality, reflecting the new thinking of the day and displaying both Italian influence: as in the poetic toccatas, stylistically close to the toccata de durezzo e ligature; and the new seventeenth-century French style as evinced by the correntes and voltes. As such the collection is a unique amalgam of forms encountered in no other publication of lute music. The book also contains passamezzi with their salterelli, a genre found in countless sixteenth-century collections and fulfilling the same function as the “twelve bar blues” in our own time.

Tracklist:
01. Sonate in Fa Minore: I. Toccata
02. Sonate in Fa Minore: II. Corrente
03. Sonate in Fa Minore: III. Volta
04. Sonate in Fa Minore: IV. Passamezo
05. Sonate in Fa Minore: V. Saltarello
06. Sonate in Si Bemolle Maggiore: I. Toccata
07. Sonate in Si Bemolle Maggiore: II. Corrente
08. Sonate in Si Bemolle Maggiore: III. Volta 1
09. Sonate in Si Bemolle Maggiore: IV. Volta 2
10. Alcun non può saper
11. Fantasia terza
12. Sonate in Do Minore: I. Toccata
13. Sonate in Do Minore: II. Corrente 1
14. Sonate in Do Minore: III. Corrente 2
15. Sonate in Do Minore: IV. Corrente 3
16. Sonate in Do Minore: V. Passamezo
17. Sonate in Do Minore: VI. Saltarello
18. Sonate in Do Maggiore: I. Toccata
19. Sonate in Do Maggiore: II. Volta 1
20. Sonate in Do Maggiore: III. Volta 2
21. Sonate in Do Maggiore: IV. Volta 3
22. Sonate in Do Maggiore: V. Volta 4
23. Toccata in Re Minore
24. Calliope
25. Polymnia
26. Urania
27. Sonate in Sol Maggiore: I. Toccata
28. Sonate in Sol Maggiore: II. Corrente 1
29. Sonate in Sol Maggiore: III. Corrente 2
30. Sonate in Sol Maggiore: IV. Volta
31. Sonate in La Minore: I. Toccata
32. Sonate in La Minore: II. Corrente 1
33. Sonate in La Minore: III. Corrente 2
34. Sonate in La Minore: IV. Volta
35. Toccata in Fa Maggiore

Composers:
Galilei, Michelagnolo (1575-1631)
Galilei, Vincenzo (c.1520-91)

Personnel:
Anthony Bailes (lute)

foobar2000 1.3.7 / Dynamic Range Meter 1.1.1
log date: 2018-01-19 01:56:53

––––––––––––––––––––––––––––––––––––––––
Analyzed: Anthony Bailes / Galilei: Intavolatura di liuto
––––––––––––––––––––––––––––––––––––––––

DR Peak RMS Duration Track
––––––––––––––––––––––––––––––––––––––––
DR14 -0.91 dB -17.45 dB 2:18 01-Sonate in Fa Minore: I. Toccata
DR13 -3.19 dB -18.57 dB 1:37 02-Sonate in Fa Minore: II. Corrente
DR13 -2.49 dB -17.69 dB 1:18 03-Sonate in Fa Minore: III. Volta
DR13 -3.22 dB -18.73 dB 2:45 04-Sonate in Fa Minore: IV. Passamezo
DR12 -0.59 dB -18.45 dB 1:28 05-Sonate in Fa Minore: V. Saltarello
DR14 -3.84 dB -20.76 dB 1:45 06-Sonate in Si Bemolle Maggiore: I. Toccata
DR13 -3.34 dB -19.22 dB 1:31 07-Sonate in Si Bemolle Maggiore: II. Corrente
DR13 -2.46 dB -17.41 dB 1:17 08-Sonate in Si Bemolle Maggiore: III. Volta 1
DR12 -0.66 dB -17.84 dB 1:26 09-Sonate in Si Bemolle Maggiore: IV. Volta 2
DR13 -3.54 dB -20.03 dB 1:43 10-Alcun non può saper
DR13 -3.24 dB -19.71 dB 1:48 11-Fantasia terza
DR13 -0.58 dB -17.11 dB 1:16 12-Sonate in Do Minore: I. Toccata
DR12 -3.47 dB -18.50 dB 1:40 13-Sonate in Do Minore: II. Corrente 1
DR12 -4.26 dB -19.36 dB 1:28 14-Sonate in Do Minore: III. Corrente 2
DR14 -0.37 dB -17.64 dB 1:55 15-Sonate in Do Minore: IV. Corrente 3
DR13 -2.11 dB -18.21 dB 3:02 16-Sonate in Do Minore: V. Passamezo
DR13 -0.99 dB -17.44 dB 1:32 17-Sonate in Do Minore: VI. Saltarello
DR13 -3.61 dB -19.80 dB 1:38 18-Sonate in Do Maggiore: I. Toccata
DR13 -2.30 dB -18.63 dB 1:24 19-Sonate in Do Maggiore: II. Volta 1
DR14 -1.39 dB -17.83 dB 1:38 20-Sonate in Do Maggiore: III. Volta 2
DR14 -0.16 dB -17.32 dB 1:21 21-Sonate in Do Maggiore: IV. Volta 3
DR14 -0.44 dB -18.29 dB 1:47 22-Sonate in Do Maggiore: V. Volta 4
DR14 -1.86 dB -18.02 dB 7:06 23-Toccata in Re Minore
DR14 -4.75 dB -20.92 dB 2:22 24-Calliope
DR13 -4.26 dB -19.72 dB 1:47 25-Polymnia
DR13 -1.60 dB -17.64 dB 1:42 26-Urania
DR14 -3.68 dB -20.79 dB 1:56 27-Sonate in Sol Maggiore: I. Toccata
DR13 -2.55 dB -18.86 dB 1:21 28-Sonate in Sol Maggiore: II. Corrente 1
DR13 -2.29 dB -18.34 dB 1:36 29-Sonate in Sol Maggiore: III. Corrente 2
DR12 -3.40 dB -19.03 dB 1:35 30-Sonate in Sol Maggiore: IV. Volta
DR13 -2.38 dB -19.07 dB 1:49 31-Sonate in La Minore: I. Toccata
DR13 -1.61 dB -18.07 dB 1:26 32-Sonate in La Minore: II. Corrente 1
DR13 -0.16 dB -17.70 dB 1:32 33-Sonate in La Minore: III. Corrente 2
DR13 -1.80 dB -17.52 dB 1:56 34-Sonate in La Minore: IV. Volta
DR13 -1.45 dB -18.74 dB 2:24 35-Toccata in Fa Maggiore
––––––––––––––––––––––––––––––––––––––––

Number of tracks: 35
Official DR value: DR13

Samplerate: 88200 Hz
Channels: 2
Bits per sample: 24
Bitrate: 2527 kbps
Codec: FLAC
================================================================================


Thanks to the Original customer.