Tags
Language
Tags

Art Blakey - Drums Around The Corner (1959/2021) [Official Digital Download 24/96]

Posted By: pyatak
Art Blakey - Drums Around The Corner (1959/2021) [Official Digital Download 24/96]

Art Blakey - Drums Around The Corner (1959/2021) [Official Digital Download 24/96]
FLAC (tracks) 24-bit/96 kHz | Front Cover | Time - 72:40 minutes | 1,45 GB
Jazz | Label: RevOla, Official Digital Download

Drums Around the Corner is a jazz album by Art Blakey which was mainly recorded in 1958, but not released until 1999.

The album comprises two sessions. The main session, recorded by Rudy Van Gelder at Manhattan Towers, New York City on November 2, 1958, is effectively a showcase for an all-star lineup drummers consisting of Blakey, Philly Joe Jones, Roy Haynes and Ray Barretto (on congas). They are supported by the regular members of the Jazz Messenger at the time, Lee Morgan (trumpet), Bobby Timmons (piano) and Jymie Merritt (bass).

The later session was a duet between Blakey and bassist Paul Chambers, recorded at the Van Gelder Studio in Hackensack, NJ on March 29, 1959.

TRACKLIST

1. Art Blakey - Moose The Mooche (Remastered)
2. Art Blakey - Blakey's Blues (Remastered)
3. Art Blakey - Lee's Tune (Remastered)
4. Art Blakey - Let's Take 16 Bars (Remastered)
5. Art Blakey - Drums In The Rain (Remastered)
6. Art Blakey - Lover (Remastered)
7. Art Blakey - I've Got My Love To Keep Me Warm (Remastered)
8. Art Blakey - What Is This Thing Called Love? (Remastered)

foobar2000 1.6.2 / Dynamic Range Meter 1.1.1
log date: 2021-08-15 13:56:03

––––––––––––––––––––––––––––––––––––––––
Analyzed: Art Blakey / Drums Around The Corner
––––––––––––––––––––––––––––––––––––––––

DR Peak RMS Duration Track
––––––––––––––––––––––––––––––––––––––––
DR9 0.00 dB -12.69 dB 15:19 01-Moose The Mooche (Remastered)
DR12 0.00 dB -15.65 dB 11:09 02-Blakey's Blues (Remastered)
DR11 0.00 dB -13.99 dB 8:26 03-Lee's Tune (Remastered)
DR9 0.00 dB -12.79 dB 6:13 04-Let's Take 16 Bars (Remastered)
DR11 -0.01 dB -15.40 dB 11:14 05-Drums In The Rain (Remastered)
DR9 0.00 dB -12.16 dB 7:23 06-Lover (Remastered)
DR13 0.00 dB -15.38 dB 7:11 07-I've Got My Love To Keep Me Warm (Remastered)
DR10 0.00 dB -13.35 dB 5:43 08-What Is This Thing Called Love? (Remastered)
––––––––––––––––––––––––––––––––––––––––

Number of tracks: 8
Official DR value: DR11

Samplerate: 96000 Hz
Channels: 2
Bits per sample: 24
Bitrate: 2988 kbps
Codec: FLAC
================================================================================



Thanks to the Original customer.