Tags
Language
Tags

Ashley Fripp - Bach, Adès & Chopin: Piano Works (2018) [Official Digital Download 24/96]

Posted By: SERTiL
Ashley Fripp - Bach, Adès & Chopin: Piano Works (2018) [Official Digital Download 24/96]

Ashley Fripp - Bach, Adès & Chopin: Piano Works (2018)
FLAC (tracks) 24-bit/96 kHz | Time - 64:40 minutes | 1.02 GB
Studio Master, Official Digital Download | Artwork: Digital Booklet

Willowhayne Records presents an album of virtuoso piano music, which shows every facet of Leeds Piano Competition 2016 semi-finalist Ashley Fripp's astounding playing. Included in the programme is Thomas Ades Concert Paraphrase on Powder Her Face, the only available recording apart from the composer's own. "Ashley Fripp is a genuine virtuoso, an astoundingly brilliant and masterly pianist, and his total grasp of the music is a joy to hear.” (Thomas Ades) British pianist Ashley Fripp has performed extensively as a recitalist, chamber musician and concerto soloist throughout Europe, Asia, North America, Africa and Australia in many of the world’s most prestigious concert halls. Highlights include the Carnegie Hall, Musikverein, Concertgebouw, the Philharmonie halls of Cologne, Pars, Luxembourg and Warsaw, the Bozar, the Royal Festival, and others.

Tracklist:
1. English Suite No. 2 in A Minor, BWV 807: I. Prélude (04:21)
2. English Suite No. 2 in A Minor, BWV 807: II. Allemande (03:44)
3. English Suite No. 2 in A Minor, BWV 807: III. Courante (01:45)
4. English Suite No. 2 in A Minor, BWV 807: IV. Sarabande (03:28)
5. English Suite No. 2 in A Minor, BWV 807: V. Bourrées I & II (04:10)
6. English Suite No. 2 in A Minor, BWV 807: VI. Gigue (03:14)
7. Concert Paraphrase on Powder Her Face: I. — (05:39)
8. Concert Paraphrase on Powder Her Face: II. — (01:30)
9. Concert Paraphrase on Powder Her Face: III. — (08:12)
10. Concert Paraphrase on Powder Her Face: IV. — (01:58)
11. Berceuse in D-Flat Major, Op. 57 (04:35)
12. Barcarolle in F-Sharp Major, Op. 60 (08:20)
13. Andante spianato & Grande polonaise brillante, Op. 22 (Version for Piano Solo): I. Andante spianato (04:29)
14. Andante spianato & Grande polonaise brillante, Op. 22 (Version for Piano Solo): II. Grande polonaise brillante (09:15)

foobar2000 1.3.7 / Dynamic Range Meter 1.1.1
log date: 2018-07-24 10:31:34

––––––––––––––––––––––––––––––––––––––––
Analyzed: Ashley Fripp / Bach, Adès & Chopin: Piano Works
––––––––––––––––––––––––––––––––––––––––

DR Peak RMS Duration Track
––––––––––––––––––––––––––––––––––––––––
DR11 -0.69 dB -16.30 dB 4:22 01-English Suite No. 2 in A Minor, BWV 807: I. Prélude
DR12 -8.72 dB -25.70 dB 3:44 02-English Suite No. 2 in A Minor, BWV 807: II. Allemande
DR11 -5.47 dB -20.37 dB 1:45 03-English Suite No. 2 in A Minor, BWV 807: III. Courante
DR14 -9.83 dB -29.64 dB 3:29 04-English Suite No. 2 in A Minor, BWV 807: IV. Sarabande
DR12 -3.93 dB -20.24 dB 4:10 05-English Suite No. 2 in A Minor, BWV 807: V. Bourrées I & II
DR11 -4.20 dB -18.74 dB 3:15 06-English Suite No. 2 in A Minor, BWV 807: VI. Gigue
DR14 -0.11 dB -18.92 dB 5:40 07-Concert Paraphrase on Powder Her Face: I. —
DR12 -0.63 dB -17.41 dB 1:31 08-Concert Paraphrase on Powder Her Face: II. —
DR14 -0.80 dB -20.30 dB 8:13 09-Concert Paraphrase on Powder Her Face: III. —
DR12 -5.74 dB -22.36 dB 1:59 10-Concert Paraphrase on Powder Her Face: IV. —
DR12 -11.28 dB -29.36 dB 4:36 11-Berceuse in D-Flat Major, Op. 57
DR13 -2.46 dB -20.44 dB 8:20 12-Barcarolle in F-Sharp Major, Op. 60
DR17 -4.63 dB -27.08 dB 4:30 13-Andante spianato & Grande polonaise brillante, Op. 22 (Version for Piano Solo): I. Andante spianato
DR13 -1.00 dB -18.40 dB 9:16 14-Andante spianato & Grande polonaise brillante, Op. 22 (Version for Piano Solo): II. Grande polonaise brillante
––––––––––––––––––––––––––––––––––––––––

Number of tracks: 14
Official DR value: DR13

Samplerate: 96000 Hz
Channels: 2
Bits per sample: 24
Bitrate: 2349 kbps
Codec: FLAC
================================================================================


Thanks to the Original customer.