BIG HEAD TODD & THE MONSTERS - We're Gonna Play It Anyway - Red Rocks 2020 (2020) [Official Digital Download]

Posted By: pyatak
BIG HEAD TODD & THE MONSTERS - We're Gonna Play It Anyway - Red Rocks 2020 (2020) [Official Digital Download]

BIG HEAD TODD & THE MONSTERS - We're Gonna Play It Anyway - Red Rocks 2020 (2020) [Official Digital Download]
FLAC (tracks) 24-bit/48 kHz | Front Cover | Time - 72:25 minutes | 876 MB
Rock | Label: Big Records, Official Digital Download

Happy July, Monster Nation! This month's Monster's Music Monthly release is a full LIVE album, 'We're Gonna Play It Anyway - Red Rocks 2020,' featuring the full set from our Red Rocks at Home performance.

TRACKLIST

1. BIG HEAD TODD & THE MONSTERS - New World Arisin' (Live)
2. BIG HEAD TODD & THE MONSTERS - Hysteria (Live)
3. BIG HEAD TODD & THE MONSTERS - Soul For Every Cowboy (Live)
4. BIG HEAD TODD & THE MONSTERS - Dirty Juice (Live)
5. BIG HEAD TODD & THE MONSTERS - Resignation Superman (Live)
6. BIG HEAD TODD & THE MONSTERS - Damaged One (Live)
7. BIG HEAD TODD & THE MONSTERS - Angela Dangerlove (Live)
8. BIG HEAD TODD & THE MONSTERS - Beautiful World (Live)
9. BIG HEAD TODD & THE MONSTERS - Broken Hearted Savior (Live)
10. BIG HEAD TODD & THE MONSTERS - Bittersweet (Live)
11. BIG HEAD TODD & THE MONSTERS - The Moose Song (Live)
12. BIG HEAD TODD & THE MONSTERS - It's Alright (Live)
13. BIG HEAD TODD & THE MONSTERS - Circle (Live)
14. BIG HEAD TODD & THE MONSTERS - Purple Haze (Live)

foobar2000 1.3.16 / Dynamic Range Meter 1.1.1
log date: 2020-08-11 19:17:33

––––––––––––––––––––––––––––––––––––––––
Analyzed: BIG HEAD TODD & THE MONSTERS / We're Gonna Play It Anyway - Red Rocks 2020
––––––––––––––––––––––––––––––––––––––––

DR Peak RMS Duration Track
––––––––––––––––––––––––––––––––––––––––
DR7 -0.31 dB -8.74 dB 4:50 01-New World Arisin' (Live)
DR8 -0.31 dB -9.54 dB 4:38 02-Hysteria (Live)
DR8 -0.31 dB -9.09 dB 3:02 03-Soul For Every Cowboy (Live)
DR8 -0.31 dB -9.08 dB 5:33 04-Dirty Juice (Live)
DR8 -0.31 dB -9.37 dB 4:37 05-Resignation Superman (Live)
DR8 -0.31 dB -8.62 dB 4:04 06-Damaged One (Live)
DR8 -0.31 dB -9.53 dB 5:26 07-Angela Dangerlove (Live)
DR8 -0.31 dB -9.33 dB 5:32 08-Beautiful World (Live)
DR8 -0.31 dB -8.98 dB 6:04 09-Broken Hearted Savior (Live)
DR8 -0.31 dB -9.50 dB 6:00 10-Bittersweet (Live)
DR8 -0.31 dB -8.77 dB 7:57 11-The Moose Song (Live)
DR8 -0.31 dB -9.59 dB 5:08 12-It's Alright (Live)
DR8 -0.31 dB -8.64 dB 6:18 13-Circle (Live)
DR7 -0.31 dB -8.63 dB 3:18 14-Purple Haze (Live)
––––––––––––––––––––––––––––––––––––––––

Number of tracks: 14
Official DR value: DR8

Samplerate: 48000 Hz
Channels: 2
Bits per sample: 24
Bitrate: 1698 kbps
Codec: FLAC
================================================================================



Thanks to the Original customer.