Tags
Language
Tags

The Bach Choir of Bethlehem & Greg Funfgeld - J.S. Bach: Cantata BWV 21 (2018) [Official Digital Download 24/96]

Posted By: SERTiL
The Bach Choir of Bethlehem & Greg Funfgeld - J.S. Bach: Cantata BWV 21 (2018) [Official Digital Download 24/96]

The Bach Choir of Bethlehem & Greg Funfgeld - J.S. Bach: Cantata BWV 21 (2018)
FLAC (tracks) 24-bit/96 kHz | Time - 46:54 minutes | 814 MB
Studio Master, Official Digital Download | Artwork: Digital Booklet

The oldest Bach choir in the United States, The Bach Choir of Bethlehem celebrates its 120th birthday in 2018. Since its founding in 1898, the now famous choir has attracted thousands of visitors from across the United States and beyond to the annual Bethlehem Bach Festival in Pennsylvania. Cantata BWV 21, Ich hatte viel Bekümmernis, was composed for various occasions between 1713 and 1714; with nearly every performance it was expanded by additional movements.

It should be noted that this recording frames the Bach cantata with two exquisite arias. With Daniel Taylor, Cassandra Lemoine, Rosa Lamoreaux, Benjamin Butterfield, William Sharp & The Bach Festival Orchestra, directed by Greg Funfgeld, this production is grandiose!

Tracklist:
1. Cantata "Gott, man lobet dich in der Stille", BWV 120: IV. Aria "Heil und Segen" 04:59
2. Cantata "Ich hatte viel Bekümmernis", BWV 21: I. Sinfonia 02:56
3. Cantata "Ich hatte viel Bekümmernis", BWV 21: II. Chorus "Ich hatte viel Bekümmernis" 03:26
4. Cantata "Ich hatte viel Bekümmernis", BWV 21: III. Aria "Seufzer, Tränen, Kummer, Not" 04:07
5. Cantata "Ich hatte viel Bekümmernis", BWV 21: IV. Recitative "Wie hast du dich, mein Gott" 01:34
6. Cantata "Ich hatte viel Bekümmernis", BWV 21: V. Aria "Bäche von gesalznen Zähren" 05:40
7. Cantata "Ich hatte viel Bekümmernis", BWV 21: VI. Chorus "Was betrübst du dich, meine Seele" 03:28
8. Cantata "Ich hatte viel Bekümmernis", BWV 21: VII. Recitative "Ach Jesu, meine Ruh" 01:23
9. Cantata "Ich hatte viel Bekümmernis", BWV 21: VIII. Aria "Komm, mein Jesu, und erquicke" 04:04
10. Cantata "Ich hatte viel Bekümmernis", BWV 21: IX. Chorus "Sei nun wieder zufrieden, meine Seele" 05:13
11. Cantata "Ich hatte viel Bekümmernis", BWV 21: X. Aria "Erfreue dich, Seele, erfreue dich, Herze" 03:07
12. Cantata "Ich hatte viel Bekümmernis", BWV 21: XI. Chorus "Das Lamm, das erwürget ist, ist würdig zu nehmen Kraft" 03:13
13. Cantata "Die Himmel eräzhlen die Ehre Gottes", BWV 76: XII. Aria "Liebt, ihr Christen, in der Tat!" 03:44

foobar2000 1.3.7 / Dynamic Range Meter 1.1.1
log date: 2018-10-31 21:59:12

––––––––––––––––––––––––––––––––––––––––
Analyzed: The Bach Choir of Bethlehem / J.S. Bach: Cantata BWV 21
––––––––––––––––––––––––––––––––––––––––

DR Peak RMS Duration Track
––––––––––––––––––––––––––––––––––––––––
DR13 -5.75 dB -24.54 dB 4:59 01-Cantata 'Gott, man lobet dich in der Stille', BWV 120 - IV. Aria 'Heil und Segen'
DR12 -10.31 dB -26.32 dB 2:56 02-Cantata 'Ich hatte viel Bekummernis', BWV 21 - I. Sinfonia
DR13 -5.13 dB -22.48 dB 3:27 03-Cantata 'Ich hatte viel Bekummernis', BWV 21 - II. Chorus 'Ich hatte viel Bekummernis'
DR14 -5.30 dB -25.10 dB 4:08 04-Cantata 'Ich hatte viel Bekummernis', BWV 21 - III. Aria 'Seufzer, Tranen, Kummer, Not'
DR13 -10.01 dB -28.69 dB 1:34 05-Cantata 'Ich hatte viel Bekummernis', BWV 21 - IV. Recitative 'Wie hast du dich, mein Gott'
DR14 -9.43 dB -26.57 dB 5:40 06-Cantata 'Ich hatte viel Bekummernis', BWV 21 - V. Aria 'Bache von gesalznen Zahren'
DR13 -4.25 dB -22.09 dB 3:29 07-Cantata 'Ich hatte viel Bekummernis', BWV 21 - VI. Chorus 'Was betrubst du dich, meine Seele'
DR14 -3.19 dB -23.73 dB 1:24 08-Cantata 'Ich hatte viel Bekummernis', BWV 21 - VII. Recitative 'Ach Jesu, meine Ruh'
DR14 -5.45 dB -24.51 dB 4:05 09-Cantata 'Ich hatte viel Bekummernis', BWV 21 - VIII. Aria 'Komm, mein Jesu, und erquicke'
DR12 -2.73 dB -19.83 dB 5:14 10-Cantata 'Ich hatte viel Bekummernis', BWV 21 - IX. Chorus 'Sei nun wieder zufrieden, meine Seele'
DR14 -7.98 dB -26.65 dB 3:07 11-Cantata 'Ich hatte viel Bekummernis', BWV 21 - X. Aria 'Erfreue dich, Seele, erfreue dich, Herze'
DR13 -0.52 dB -16.95 dB 3:14 12-Cantata 'Ich hatte viel Bekummernis', BWV 21 - XI. Chorus 'Das Lamm, das erwurget ist, ist wurdig zu nehmen Kraft'
DR13 -6.35 dB -25.68 dB 3:45 13-Cantata 'Die Himmel erazhlen die Ehre Gottes', BWV 76 - XII. Aria 'Liebt, ihr Christen, in der Tat!'
––––––––––––––––––––––––––––––––––––––––

Number of tracks: 13
Official DR value: DR13

Samplerate: 96000 Hz
Channels: 2
Bits per sample: 24
Bitrate: 2370 kbps
Codec: FLAC
================================================================================


Thanks to the Original customer.