Beatrice Rana - Bach: Goldberg Variations, BWV 988 (2017) [Official Digital Download 24/192]

Posted By: SERTiL
Beatrice Rana - Bach: Goldberg Variations, BWV 988 (2017) [Official Digital Download 24/192]

Beatrice Rana - Bach: Goldberg Variations, BWV 988 (2017)
FLAC (tracks) 24-bit/192 kHz | Time - 77:28 minutes | 2.52 GB
Studio Master, Official Digital Download | Artwork: Digital booklet

For her second Warner Classics release, young Italian pianist Beatrice Rana turns to a pinnacle of the solo keyboard repertoire and a composer she has described as “my first love”: Johann Sebastian Bach. Her interpretation of his epic Goldberg Variations bears out Le Monde’s judgement that “Beatrice Rana certainly has nothing left to prove when it comes to technique, but what makes an impression are her calm maturity and her sense of architecture,” and Gramophone’s that she is “a fully developed artist of a stature that belies her tender years.”

Bach was the composer who most obsessed Beatrice Rana as a child, and in a recent interview with Pianist magazine, she confessed that it would be his music, and above all the Goldberg Variations, that she would choose if she had to devote her life to a single composer. As she said: “I’m very happy to be going back to Bach … It’s best to avoid Bach in competitions … you can’t expose yourself to be totally killed by the jury! But Bach is my first love; now I am allowed to play it in public and I’m really looking forward to that.”

“Beware! I put on this disc and found myself barely able to move for the 78 minutes of Bach’s masterpiece, so familiar yet suddenly so new. Rana’s playing has a kind of Orphic seductiveness, a transcendent lightness of touch. She yields little to Glenn Gould in mercuriality and fleetness (her toccatas are “brio” at its most devastating), and lacks his tendentiousness. How beautifully she draws the bemused interior phrasing of variation XIII, or the plangent dissonance of the extended “Black Pearl” variation XXV. A supremely intelligent reading”. – The Times

“This recording of J.S. Bach’s Goldberg Variations is Italian pianist Beatrice Rana’s second album for Warner Classics. In 2016 I reviewed her splendid first Warner release of Tchaikovsky’s Piano Concerto No. 1 and the Prokofiev Piano Concerto No. 2 which made quite an impression. Beatrice Rana is a pianist who makes you sit up and take notice. Her striking recording will sit agreeably alongside my favourite Goldberg recordings: Rosalyn Tureck’s aristocratic 1998 Hamburg account, so full of perception, is on Deutsche Grammophon. Glenn Gould's1981 New York City recording on Sony is very enjoyable too, albeit rather headstrong for some. For those preferring a harpsichord, the 1965 recording on Teldec by early music specialist Gustav Leonhardt is admirable for its directness of approach”. -Michael Cookson

“She’s absolutely extraordinary, she’s totally thought through the music. She has her own take on it without being idiosyncratic, she writes an extraordinary interesting, intellectually probing but very humble note in the booklet. If you think back to when Glenn Gould recorded the 1955, the early fast and joyous, Goldbergs he was a year younger than rana, and I also think of Julia Fischer doing the Sonatas and partitas for Violin at the age of 21. It might be a bit silly to talk about people like Gould and Fischer, but I think Rana is up there, she’s got something really interesting and very personal to say.”- BBC Radio 3 Record Review"

TRACKLIST
01. Goldberg Variations, BWV 988: Aria
02. Goldberg Variations, BWV 988: Variatio 1 à 1 clav
03. Goldberg Variations, BWV 988: Variatio 2 à 1 clav
04. Goldberg Variations, BWV 988: Variatio 3 Canone all Unisuono à 1 clav.
05. Goldberg Variations, BWV 988: Variatio 4 à 1 clav.
06. Goldberg Variations, BWV 988: Variatio 5 à 1 o vero 2 clav
07. Goldberg Variations, BWV 988: Variatio 6 Canone alla seconda à 1 clav.
08. Goldberg Variations, BWV 988: Variatio 7 à 1 o vero 2 clav.
09. Goldberg Variations, BWV 988: Variatio 8 à 2 clav.
10. Goldberg Variations, BWV 988: Variatio 9 Canone alla terza à 2 clav.
11. Goldberg Variations, BWV 988: Variatio 10 Fughetta à 1 clav.
12. Goldberg Variations, BWV 988: Variatio 11 à 2 clav.
13. Goldberg Variations, BWV 988: Variatio 12 Canone alla quarta
14. Goldberg Variations, BWV 988: Variatio 13 à 2 clav.
15. Goldberg Variations, BWV 988: Variatio 14 à 2 clav.
16. Goldberg Variations, BWV 988: Variatio 15 Canone alla Quinta à 1 clav.
17. Goldberg Variations, BWV 988: Variatio 16 à 1 clav. Ouvertura
18. Goldberg Variations, BWV 988: Variatio 17 à 2 clav.
19. Goldberg Variations, BWV 988: Variatio 18 Canone alla sexta à 1 clav.
20. Goldberg Variations, BWV 988: Variatio 19 à 1 clav.
21. Goldberg Variations, BWV 988: Variatio 20 à 2 clav.
22. Goldberg Variations, BWV 988: Variatio 21 canone alla settima à 1 clav.
23. Goldberg Variations, BWV 988: Variatio 22 à 1 clav. alla breve
24. Goldberg Variations, BWV 988: Variatio 23 à 2 clav.
25. Goldberg Variations, BWV 988: Variatio 24 Canone alla Ottava à 1 clav.
26. Goldberg Variations, BWV 988: Variatio 25 à 2 clav.
27. Goldberg Variations, BWV 988: Variatio 26 à 2 clav.
28. Goldberg Variations, BWV 988: Variatio 27 Canone alla Nona à 2 clav.
29. Goldberg Variations, BWV 988: Variatio 28 à 1 clav.
30. Goldberg Variations, BWV 988: Variatio 29 à 1 o vero 2 clav.
31. Goldberg Variations, BWV 988: Variatio 30 à 1 clav. Quodlibet
32. Goldberg Variations, BWV 988: Aria da capo e fine

foobar2000 1.3.7 / Замер динамического диапазона (DR) 1.1.1
Дата отчёта: 2017-03-14 11:56:53

––––––––––––––––––––––––––––––––––––––––
Анализ: Beatrice Rana / Bach, J.S.: Goldberg Variations, Bwv 988
––––––––––––––––––––––––––––––––––––––––

DR Пики RMS Продолжительность трека
––––––––––––––––––––––––––––––––––––––––
DR13 -13.01 дБ -30.62 дБ 5:06 01-Goldberg Variations, Bwv 988: I. Aria
DR11 -5.11 дБ -19.28 дБ 1:56 02-Goldberg Variations, Bwv 988: Ii. Variatio 1 A 1 Clav.
DR11 -9.06 дБ -24.41 дБ 1:30 03-Goldberg Variations, Bwv 988: Iii. Variatio 2 A 1 Clav.
DR11 -7.80 дБ -23.37 дБ 1:56 04-Goldberg Variations, Bwv 988: Iv. Variatio 3 Canone All Unisuono A 1 Clav.
DR12 -1.81 дБ -18.48 дБ 1:04 05-Goldberg Variations, Bwv 988: V. Variatio 4 A 1 Clav.
DR11 -2.82 дБ -19.21 дБ 1:22 06-Goldberg Variations, Bwv 988: Vi. Variatio 5 A 1 O Vero 2 Clav
DR11 -7.26 дБ -23.60 дБ 1:19 07-Goldberg Variations, Bwv 988: Vii. Variatio 6 Canone Alla Seconda A 1 Clav.
DR12 -10.48 дБ -28.32 дБ 2:17 08-Goldberg Variations, Bwv 988: Viii. Variatio 7 A 1 O Vero 2 Clav.
DR11 -4.63 дБ -18.74 дБ 2:03 09-Goldberg Variations, Bwv 988: Ix. Variatio 8 A 2 Clav.
DR11 -10.08 дБ -25.08 дБ 1:49 10-Goldberg Variations, Bwv 988: X. Variatio 9 Canone Alla Terza A 2 Clav.
DR11 -2.35 дБ -18.16 дБ 1:32 11-Goldberg Variations, Bwv 988: Xi. Variatio 10 Fughetta A 1 Clav.
DR11 -5.10 дБ -20.36 дБ 1:52 12-Goldberg Variations, Bwv 988: Xii. Variatio 11 A 2 Clav.
DR11 -5.65 дБ -20.20 дБ 2:10 13-Goldberg Variations, Bwv 988: Xiii. Variatio 12 Canone Alla Quarta
DR13 -8.18 дБ -26.80 дБ 4:18 14-Goldberg Variations, Bwv 988: Xiv. Variatio 13 A 2 Clav.
DR11 -4.47 дБ -19.63 дБ 2:02 15-Goldberg Variations, Bwv 988: Xv. Variatio 14 A 2 Clav.
DR13 -9.32 дБ -26.61 дБ 4:23 16-Goldberg Variations, Bwv 988: Xvi. Variatio 15 Canone Alla Quinta A 1 Clav.
DR13 -2.17 дБ -19.01 дБ 3:22 17-Goldberg Variations, Bwv 988: Xvii. Variatio 16 A 1 Clav. Ouvertura
DR12 -6.84 дБ -23.01 дБ 2:03 18-Goldberg Variations, Bwv 988: Xviii. Variatio 17 A 2 Clav.
DR10 -4.60 дБ -20.26 дБ 1:23 19-Goldberg Variations, Bwv 988: Xix. Variatio 18 Canone Alla Sexta A 1 Clav.
DR11 -5.09 дБ -20.53 дБ 1:12 20-Goldberg Variations, Bwv 988: Xx. Variatio 19 A 1 Clav.
DR10 -3.59 дБ -19.46 дБ 1:48 21-Goldberg Variations, Bwv 988: Xxi. Variatio 20 A 2 Clav.
DR11 -3.45 дБ -20.17 дБ 2:53 22-Goldberg Variations, Bwv 988: Xxii. Variatio 21 Canone Alla Settima A 1 Clav.
DR11 -3.16 дБ -18.37 дБ 1:21 23-Goldberg Variations, Bwv 988: Xxiii. Variatio 22 A 1 Clav. Alla Breve
DR12 -0.62 дБ -19.99 дБ 2:06 24-Goldberg Variations, Bwv 988: Xxiv. Variatio 23 A 2 Clav.
DR11 -5.60 дБ -22.24 дБ 2:29 25-Goldberg Variations, Bwv 988: Xxv. Variatio 24 Canone Alla Ottava A 1 Clav.
DR12 -8.99 дБ -26.89 дБ 7:02 26-Goldberg Variations, Bwv 988: Xxvi. Variatio 25 A 2 Clav.
DR11 -2.86 дБ -18.94 дБ 1:54 27-Goldberg Variations, Bwv 988: Xxvii Variatio 26 A 2 Clav.
DR11 -6.75 дБ -21.27 дБ 1:53 28-Goldberg Variations, Bwv 988: Xxviii. Variatio 27 Canone Alla Nona A 2 Clav.
DR11 -6.38 дБ -21.26 дБ 2:24 29-Goldberg Variations, Bwv 988: Xxix. Variatio 28 A 1 Clav.
DR11 -0.58 дБ -15.17 дБ 2:03 30-Goldberg Variations, Bwv 988: Xxx. Variatio 29 A 1 O Vero 2 Clav.
DR11 -2.30 дБ -15.99 дБ 1:47 31-Goldberg Variations, Bwv 988: Xxxi. Variatio 30 A 1 Clav. Quodlibet
DR13 -15.77 дБ -33.47 дБ 5:24 32-Goldberg Variations, Bwv 988: Xxxii. Aria Da Capo E Fine
––––––––––––––––––––––––––––––––––––––––

Количество треков: 32
Реальные значения DR: DR11

Частота: 192000 Гц
Каналов: 2
Разрядность: 24
Битрейт: 4363 кбит/с
Кодек: FLAC
================================================================================


Beatrice Rana - Bach: Goldberg Variations, BWV 988 (2017) [Official Digital Download 24/192]


Thanks to the Original customer.