Barbra Streisand - Guilty (1980/2015) [Official Digital Download]

Posted By: SERTiL
Barbra Streisand - Guilty (1980/2015) [Official Digital Download]

Barbra Streisand - Guilty (1980/2015)
FLAC (tracks) 24-bit/44.1kHz | Time - 41:59 minutes | 465 MB
Studio Master, Official Digital Download | Artwork: Front Cover

The biggest selling album of Barbra Streisand's career is also one of her least characteristic. The album was written and produced by Barry Gibb in association with his brothers and the producers of the Bee Gees, and in essence it sounds like a post-Saturday Night Fever Bee Gees album with vocals by Streisand. Gibb adapted his usual style somewhat, especially in slowing the tempos and leaving more room for the vocal, but his melodic style and the backup vocals, even when they are not sung by the Bee Gees, are typical of them. Still, the record was more hybrid than compromise, and the chart-topping single "Woman in Love" has a sinuous feel that is both right for Streisand and new for her. Other hits were the title song and "What Kind of Fool," both duets with Gibb. (The song "Guilty" won a Grammy Award for Best Pop Vocal by Duo or Group.) ~ AllMusic Review by William Ruhlmann

Tracklist:
01. Guilty (Duet With Barry Gibb)
02. Woman In Love
03. Run Wild
04. Promises
05. The Love Inside
06. What Kind of Fool
07. Life Story
08. Never Give Up
09. Make It Like a Memory

foobar2000 1.3.7 / Dynamic Range Meter 1.1.1
log date: 2018-01-10 20:52:59

––––––––––––––––––––––––––––––––––––––––
Analyzed: Barbra Streisand duet with Barry Gibb / Guilty (1-2)
Barbra Streisand / Guilty (3-9)
––––––––––––––––––––––––––––––––––––––––

DR Peak RMS Duration Track
––––––––––––––––––––––––––––––––––––––––
DR10 -0.70 dB -13.10 dB 4:27 01-Guilty (Duet With Barry Gibb)
DR9 -0.50 dB -12.53 dB 4:07 06-What Kind of Fool
DR7 -0.70 dB -11.03 dB 3:53 02-Woman In Love
DR8 -0.50 dB -12.12 dB 4:09 03-Run Wild
DR9 -0.60 dB -11.76 dB 4:23 04-Promises
DR10 -0.50 dB -14.23 dB 5:09 05-The Love Inside
DR8 -0.50 dB -11.52 dB 4:38 07-Life Story
DR8 -0.50 dB -10.48 dB 3:44 08-Never Give Up
DR9 -0.50 dB -12.75 dB 7:34 09-Make It Like a Memory
––––––––––––––––––––––––––––––––––––––––

Number of tracks: 9
Official DR value: DR9

Samplerate: 44100 Hz
Channels: 2
Bits per sample: 24
Bitrate: 1508 kbps
Codec: FLAC
================================================================================


Thanks to the Original customer.