Barnabás Kelemen - Kodály- Duo for Violin and Violoncello, Op. 7 - Dvořák- Piano Trio, Op. 90 "Dumky" (2021) [24/96]

Posted By: pyatak
Barnabás Kelemen - Kodály- Duo for Violin and Violoncello, Op. 7 - Dvořák- Piano Trio, Op. 90 "Dumky" (2021) [24/96]

Barnabás Kelemen - Kodály- Duo for Violin and Violoncello, Op. 7 - Dvořák- Piano Trio, Op. 90 "Dumky" (2021) [24/96]
FLAC (tracks) 24-bit/96 kHz | Front Cover | Time - 58:38 minutes | 1,01 GB
Classical | Label: Alpha, Official Digital Download

After the success of the recent recording of works by Veress and Bartók, which won both a Gramophone Award and a BBC Music Magazine Award in 2020, the Lockenhaus Festival series, curated by its artistic director Nicolas Altstaedt, continues its journey through central Europe with Antonín Dvořák and his famous ‘Dumky’ Trio, named after a genre of Slavonic folksong generally performed by blind wandering minstrels who accompanied themselves on the kobza or bandura (twelve-string lute). Dvořák, whose father played the zither, immersed himself in this music and creatively translated its substance into his own music. The trio was premiered in 1891 and, in response to its ecstatic reception, Dvořák decided to perform it during his grand farewell tour before leaving for the United States. Zoltán Kodály’s Duo for violin and cello (1914), which completes the programme, also bears witness to the influence of folk music.

TRACKLIST

1. Barnabás Kelemen - I. Allegro serioso, non troppo
2. Barnabás Kelemen - II. Adagio - Andante
3. Barnabás Kelemen - III. Maestoso e largamente, ma non troppo lento - Presto
4. Barnabás Kelemen - I. Lento maestoso - Allegro quasi doppio movimento
5. Barnabás Kelemen - II. Poco Adagio - Vivace non troppo
6. Barnabás Kelemen - III. Andante - Vivace non troppo
7. Barnabás Kelemen - IV. Andante moderato - Allegretto scherzando
8. Barnabás Kelemen - V. Allegro - Meno mosso
9. Barnabás Kelemen - VI. Lento maestoso - Vivace
10. Barnabás Kelemen - Dumka III: Allegro moderato e grazioso

foobar2000 1.6.2 / Dynamic Range Meter 1.1.1
log date: 2021-06-11 10:56:47

––––––––––––––––––––––––––––––––––––––––
Analyzed: Barnabás Kelemen / Kodály: Duo for Violin and Violoncello, Op. 7 - Dvořák: Piano Trio, Op. 90 "Dumky"
––––––––––––––––––––––––––––––––––––––––

DR Peak RMS Duration Track
––––––––––––––––––––––––––––––––––––––––
DR12 -0.89 dB -17.91 dB 7:33 01-I. Allegro serioso, non troppo
DR13 -0.53 dB -19.83 dB 7:41 02-II. Adagio - Andante
DR13 -0.59 dB -19.06 dB 7:55 03-III. Maestoso e largamente, ma non troppo lento - Presto
DR11 -1.07 dB -17.04 dB 4:16 04-I. Lento maestoso - Allegro quasi doppio movimento
DR12 -0.56 dB -19.61 dB 6:50 05-II. Poco Adagio - Vivace non troppo
DR14 -1.08 dB -22.33 dB 7:08 06-III. Andante - Vivace non troppo
DR13 -1.06 dB -21.60 dB 5:25 07-IV. Andante moderato - Allegretto scherzando
DR12 -0.95 dB -19.18 dB 4:02 08-V. Allegro - Meno mosso
DR12 -1.06 dB -18.53 dB 4:47 09-VI. Lento maestoso - Vivace
DR13 -2.89 dB -21.82 dB 3:02 10-Dumka III: Allegro moderato e grazioso
––––––––––––––––––––––––––––––––––––––––

Number of tracks: 10
Official DR value: DR13

Samplerate: 96000 Hz
Channels: 2
Bits per sample: 24
Bitrate: 2373 kbps
Codec: FLAC
================================================================================



Thanks to the Original customer.