Barry Gibb - Greenfields- The Gibb Brothers Songbook Vol. 1 (2021) [Official Digital Download 24/96]

Posted By: pyatak
Barry Gibb - Greenfields- The Gibb Brothers Songbook Vol. 1 (2021) [Official Digital Download 24/96]

Barry Gibb - Greenfields- The Gibb Brothers Songbook Vol. 1 (2021) [Official Digital Download 24/96]
FLAC (tracks) 24-bit/96 kHz | Front Cover | Time - 44:04 minutes | 914 MB
Pop | Label: Capitol Records, Official Digital Download

Arriving on the heels of the much-celebrated 2020 documentary How Can You Mend a Broken Heart—a warm-hearted look back on the career of the Bee Gees and, more specifically, the Gibb brothers—this duets album has a lot to live up to. The end results, however, are hit or miss, as Barry Gibb (the only surviving brother) teams up with a slew of country artists on the group's biggest songs. Highlights include "Too Much Heaven," which pushes the right buttons from those first bars of easy listening perfection. With Alison Krauss taking Barry's higher melody part, there's a balance and easy trade-off that brings to mind Barry's best duets with Barbra Streisand. Keith Urban, smooth and sweet, sounds like the lost Gibb brother on one of the Bee Gees' earliest hits, "I've Gotta Get a Message to You." And Rival Sons' frontman Jay Buchanan brings a true-blue soulfulness to "To Love Somebody"— but ends up overshadowing Barry. Age wears well on some voices. But when the voice was heaven-sent falsetto perfection to begin with, time is a heartbreaker. Which makes "Words," Barry's duet with Dolly Parton—herself a high-in-the-clouds songbird in her younger years, including when she and Kenny Rogers had a hit with the Barry-penned "Islands in the Stream"—a humbling, bittersweet listen. The same goes for "Rest Your Love On Me," with Olivia Newton-John. But there are bright spots where Barry fits in comfortably, including a twangy take on "Words of a Fool" with Jason Isbell and "How Deep Is Your Love," which finds him hitting the high notes and embraced by Little Big Town's butter-rich harmonies. The majestic "Run to Me" starts with Barry sounding top-notch as Brandi Carlile—her honeyed croon as excellent as ever—joins in for Robin Gibb's gilded part on the chorus. When she jumps up a register or two on lines like "And when you've got nothing to lose," it's chill-inducing and Bee Gees-worthy.

TRACKLIST

1. Barry Gibb - I’ve Gotta Get A Message To You (feat. Keith Urban)
2. Barry Gibb - Words Of A Fool (feat. Jason Isbell)
3. Barry Gibb - Run To Me (feat. Brandi Carlile)
4. Barry Gibb - Too Much Heaven (feat. Alison Krauss)
5. Barry Gibb - Lonely Days (feat. Little Big Town)
6. Barry Gibb - Words (feat. Dolly Parton)
7. Barry Gibb - Jive Talkin' (feat. Miranda Lambert)
8. Barry Gibb - How Deep Is Your Love (feat. Tommy Emmanuel & Little Big Town)
9. Barry Gibb - How Can You Mend A Broken Heart (feat. Sheryl Crow)
10. Barry Gibb - To Love Somebody (feat. Jay Buchanan)
11. Barry Gibb - Rest Your Love On Me (feat. Olivia Newton-John)
12. Barry Gibb - Butterfly (feat. Gillian Welch & David Rawlings)

foobar2000 1.6.2 / Dynamic Range Meter 1.1.1
log date: 2021-01-08 00:09:59

––––––––––––––––––––––––––––––––––––––––
Analyzed: Barry Gibb / Greenfields: The Gibb Brothers Songbook Vol. 1
––––––––––––––––––––––––––––––––––––––––

DR Peak RMS Duration Track
––––––––––––––––––––––––––––––––––––––––
DR6 -0.20 dB -7.68 dB 3:15 01-I’ve Gotta Get A Message To You (feat. Keith Urban)
DR7 -0.20 dB -8.62 dB 3:48 02-Words Of A Fool (feat. Jason Isbell)
DR5 -0.20 dB -7.62 dB 3:22 03-Run To Me (feat. Brandi Carlile)
DR8 -0.20 dB -9.97 dB 3:40 04-Too Much Heaven (feat. Alison Krauss)
DR5 -0.20 dB -9.43 dB 3:44 05-Lonely Days (feat. Little Big Town)
DR6 -0.20 dB -10.00 dB 3:12 06-Words (feat. Dolly Parton)
DR7 -0.20 dB -8.57 dB 3:58 07-Jive Talkin' (feat. Miranda Lambert)
DR6 -0.20 dB -8.43 dB 4:26 08-How Deep Is Your Love (feat. Tommy Emmanuel & Little Big Town)
DR8 -0.20 dB -9.91 dB 3:26 09-How Can You Mend A Broken Heart (feat. Sheryl Crow)
DR5 -0.20 dB -7.88 dB 3:35 10-To Love Somebody (feat. Jay Buchanan)
DR6 -0.20 dB -8.34 dB 4:02 11-Rest Your Love On Me (feat. Olivia Newton-John)
DR6 -0.20 dB -8.51 dB 3:43 12-Butterfly (feat. Gillian Welch & David Rawlings)
––––––––––––––––––––––––––––––––––––––––

Number of tracks: 12
Official DR value: DR6

Samplerate: 96000 Hz
Channels: 2
Bits per sample: 24
Bitrate: 2861 kbps
Codec: FLAC
================================================================================



Thanks to the Original customer.