Edward Gardner - Bartók: Concerto for Orchestra; Dance Suite; Rhapsodies Nos. 1 & 2 (2017) [Official Digital Download 24/96]

Posted By: SERTiL
Edward Gardner - Bartók: Concerto for Orchestra; Dance Suite; Rhapsodies Nos. 1 & 2 (2017) [Official Digital Download 24/96]

Edward Gardner - Bartók: Concerto for Orchestra; Dance Suite; Rhapsodies Nos. 1 & 2 (2017)
FLAC (tracks) 24-bit/96 kHz | Time - 80:18 minutes | 1.28 GB
Studio Master, Official Digital Download | Artwork: Digital Booklet

Acclaimed Canadian violinist James Ehnes collaborates with conductor Edward Gardner and the Bergen Philharmonic Orchestra on this all-Bartók release. Featuring two versions of the vibrant and gutsy Violin Rhapsody No. 1, the majority of the album is dedicated to orchestral works, namely the Dance Suite and the famous Concerto for Orchestra, making for a lively and engaging release performed by world-class musicians.

“a fierce, lucid account of Bartók’s last great masterpiece, Concerto for Orchestra… with the ever persuasive Canadian violinist James Ehnes as soloist, full of Hungarian-Romanian zest. The Bergen orchestra sounds wonderfully alive to Bartók’s rhythmic exactitudes.” - Fiona Maddocks, The Observer

Tracklist:

Béla Bartók (1881-1945)

01. Bergen Philharmonic Orchestra & Edward Gardner – Concerto for Orchestra, Sz. 116, BB 123: I. Introduzione. Andante non troppo - Allegro vivace (10:31)
02. Bergen Philharmonic Orchestra & Edward Gardner – Concerto for Orchestra, Sz. 116, BB 123: II. Giuoco delle coppie. Allegretto scherzando (06:19)
03. Bergen Philharmonic Orchestra & Edward Gardner – Concerto for Orchestra, Sz. 116, BB 123: III. Elegia. Andante non troppo (07:04)
04. Bergen Philharmonic Orchestra & Edward Gardner – Concerto for Orchestra, Sz. 116, BB 123: IV. Intermezzo interrotto. Allegretto (04:16)
05. Bergen Philharmonic Orchestra & Edward Gardner – Concerto for Orchestra, Sz. 116, BB 123: V. Finale. Presto (09:50)
06. James Ehnes, Hans-Kristian Kjos Sorensen, Bergen Philharmonic Orchestra & Edward Gardner – Violin Rhapsody No. 1, Sz. 87, BB 94b: I. Lassú. Moderato (04:31)
07. James Ehnes, Hans-Kristian Kjos Sorensen, Bergen Philharmonic Orchestra & Edward Gardner – Violin Rhapsody No. 1, Sz. 87, BB 94b: II. Friss. Allegro moderato (First Version) (05:51)
08. James Ehnes, Hans-Kristian Kjos Sorensen, Bergen Philharmonic Orchestra & Edward Gardner – Violin Rhapsody No. 1, Sz. 87, BB 94b: II. Friss. Allegro moderato (Second Version) (05:10)
09. James Ehnes, Bergen Philharmonic Orchestra & Edward Gardner – Violin Rhapsody No. 2, Sz. 90, BB 96b (Revised 1944 Version): I. Lassú. Moderato (04:25)
10. James Ehnes, Bergen Philharmonic Orchestra & Edward Gardner – Violin Rhapsody No. 2, Sz. 90, BB 96b (Revised 1944 Version): II. Friss. Allegro moderato (06:04)
11. Bergen Philharmonic Orchestra & Edward Gardner – Dance Suite, Sz. 77, BB 86a: I. Moderato (03:29)
12. Bergen Philharmonic Orchestra & Edward Gardner – Dance Suite, Sz. 77, BB 86a: II. Allegro molto (02:08)
13. Bergen Philharmonic Orchestra & Edward Gardner – Dance Suite, Sz. 77, BB 86a: III. Allegro vivace (02:59)
14. Bergen Philharmonic Orchestra & Edward Gardner – Dance Suite, Sz. 77, BB 86a: IV. Molto tranquillo (02:49)
15. Bergen Philharmonic Orchestra & Edward Gardner – Dance Suite, Sz. 77, BB 86a: V. Commodo (00:59)
16. Bergen Philharmonic Orchestra & Edward Gardner – Dance Suite, Sz. 77, BB 86a: VI. Finale. Allegro (03:53)

Personnel:
James Ehnes (violin)
Bergen Philharmonic Orchestra
Edward Gardner (conductor)

foobar2000 1.3.7 / Dynamic Range Meter 1.1.1
log date: 2017-11-14 17:57:47

––––––––––––––––––––––––––––––––––––––––
Analyzed: James Ehnes / Bartók: Concerto for Orchestra; Dance Suite; Rhapsodies Nos. 1 & 2
––––––––––––––––––––––––––––––––––––––––

DR Peak RMS Duration Track
––––––––––––––––––––––––––––––––––––––––
DR17 -1.17 dB -25.46 dB 10:31 01-Concerto for Orchestra, Sz. 116, BB 123: I. Introduzione. Andante non troppo - Allegro vivace
DR14 -12.81 dB -33.08 dB 6:19 02-Concerto for Orchestra, Sz. 116, BB 123: II. Giuoco delle coppie. Allegretto scherzando
DR15 -2.60 dB -24.23 dB 7:04 03-Concerto for Orchestra, Sz. 116, BB 123: III. Elegia. Andante non troppo
DR15 -6.08 dB -30.97 dB 4:16 04-Concerto for Orchestra, Sz. 116, BB 123: IV. Intermezzo interrotto. Allegretto
DR17 -1.00 dB -23.96 dB 9:50 05-Concerto for Orchestra, Sz. 116, BB 123: V. Finale. Presto
DR13 -7.81 dB -26.97 dB 4:31 06-Violin Rhapsody No. 1, Sz. 87, BB 94b: I. Lassú. Moderato
DR15 -6.52 dB -27.33 dB 5:52 07-Violin Rhapsody No. 1, Sz. 87, BB 94b: II. Friss. Allegro moderato (First Version)
DR15 -6.20 dB -27.66 dB 5:11 08-Violin Rhapsody No. 1, Sz. 87, BB 94b: II. Friss. Allegro moderato (Second Version)
DR13 -6.65 dB -26.36 dB 4:26 09-Violin Rhapsody No. 2, Sz. 90, BB 96b (Revised 1944 Version): I. Lassú. Moderato
DR15 -5.50 dB -26.20 dB 6:05 10-Violin Rhapsody No. 2, Sz. 90, BB 96b (Revised 1944 Version): II. Friss. Allegro moderato
DR15 -3.37 dB -27.82 dB 3:29 11-Dance Suite, Sz. 77, BB 86a: I. Moderato
DR15 -1.19 dB -22.26 dB 2:09 12-Dance Suite, Sz. 77, BB 86a: II. Allegro molto
DR13 -3.25 dB -22.05 dB 3:00 13-Dance Suite, Sz. 77, BB 86a: III. Allegro vivace
DR13 -18.14 dB -37.18 dB 2:49 14-Dance Suite, Sz. 77, BB 86a: IV. Molto tranquillo
DR13 -12.98 dB -33.17 dB 0:59 15-Dance Suite, Sz. 77, BB 86a: V. Commodo
DR16 -1.27 dB -24.66 dB 3:53 16-Dance Suite, Sz. 77, BB 86a: VI. Finale. Allegro
––––––––––––––––––––––––––––––––––––––––

Number of tracks: 16
Official DR value: DR15

Samplerate: 96000 Hz
Channels: 2
Bits per sample: 24
Bitrate: 2282 kbps
Codec: FLAC
================================================================================


Thanks to the Original customer.