Tags
Language
Tags

Béatrice Rana - Ravel: Miroirs, La Valse - Stravinsky: 3 Movements from Petrushka, L'Oiseau de feu (2019) [24/192]

Posted By: SERTiL
Béatrice Rana - Ravel: Miroirs, La Valse - Stravinsky: 3 Movements from Petrushka, L'Oiseau de feu (2019) [24/192]

Béatrice Rana - Ravel: Miroirs, La Valse - Stravinsky: 3 Movements from Petrushka, L'Oiseau de feu (2019)
FLAC (tracks) 24-bit/192 kHz | Time - 72:10 minutes | 2.37 GB
Studio Master, Official Digital Download | Artwork: Digital Booklet

Beatrice Rana, in the words of the New York Times, is a pianist who “has ferocious technique but is distinguished by her musical intelligence.” Here she plays virtuosic, poetic works that evoke the creative ferment of Paris in the transitional early years of the 20th century: piano transcriptions of Stravinsky’s iridescent ballet scores The Firebird and Petrushka, and Ravel’s Miroirs and La Valse.

Tracklist:
1. Ravel: Miroirs, M. 43: I. Noctuelles (04:52)
2. Ravel: Miroirs, M. 43: II. Oiseaux tristes (04:31)
3. Ravel: Miroirs, M. 43: III. Une Barque sur l´océan (08:00)
4. Ravel: Miroirs, M. 43: IV. Alborada del gracioso (07:08)
5. Ravel: Miroirs, M. 43: V. La Vallée des cloches (05:50)
6. Stravinsky / Arr. Agosti: L´Oiseau de feu: I. Danse infernale (05:05)
7. Stravinsky / Arr. Agosti: L´Oiseau de feu: II. Berceuse (03:37)
8. Stravinsky / Arr. Agosti: III. L´Oiseau de feu: Finale (03:17)
9. Stravinsky: 3 Movements from Petrushka: I. Danse russe (02:39)
10. Stravinsky: 3 Movements from Petrushka: II. Chez Petrouchka (05:05)
11. Stravinsky: 3 Movements from Petrushka: III. La Semaine grasse (09:15)
12. Ravel: La Valse, M. 72 (12:51)

foobar2000 1.3.7 / Dynamic Range Meter 1.1.1
log date: 2019-10-23 11:16:14

––––––––––––––––––––––––––––––––––––––––
Analyzed: Béatrice Rana / Ravel: Miroirs, La Valse - Stravinsky: 3 Movements from Petrushka, L'Oiseau de feu
––––––––––––––––––––––––––––––––––––––––

DR Peak RMS Duration Track
––––––––––––––––––––––––––––––––––––––––
DR15 -4.34 dB -26.26 dB 4:53 01-Ravel: Miroirs, M. 43: I. Noctuelles
DR18 -4.42 dB -31.03 dB 4:31 02-Ravel: Miroirs, M. 43: II. Oiseaux tristes
DR14 -1.59 dB -23.95 dB 8:00 03-Ravel: Miroirs, M. 43: III. Une Barque sur l´océan
DR14 -0.45 dB -21.74 dB 7:09 04-Ravel: Miroirs, M. 43: IV. Alborada del gracioso
DR15 -11.25 dB -33.45 dB 5:51 05-Ravel: Miroirs, M. 43: V. La Vallée des cloches
DR13 -0.44 dB -18.00 dB 5:05 06-Stravinsky / Arr. Agosti: L´Oiseau de feu: I. Danse infernale
DR16 -7.17 dB -33.12 dB 3:37 07-Stravinsky / Arr. Agosti: L´Oiseau de feu: II. Berceuse
DR13 -0.40 dB -17.34 dB 3:18 08-Stravinsky / Arr. Agosti: III. L´Oiseau de feu: Finale
DR13 -3.01 dB -20.48 dB 2:39 09-Stravinsky: 3 Movements from Petrushka: I. Danse russe
DR14 -0.29 dB -20.86 dB 5:06 10-Stravinsky: 3 Movements from Petrushka: II. Chez Petrouchka
DR13 -0.29 dB -17.63 dB 9:15 11-Stravinsky: 3 Movements from Petrushka: III. La Semaine grasse
DR14 -0.41 dB -20.20 dB 12:52 12-Ravel: La Valse, M. 72
––––––––––––––––––––––––––––––––––––––––

Number of tracks: 12
Official DR value: DR14

Samplerate: 192000 Hz
Channels: 2
Bits per sample: 24
Bitrate: 4718 kbps
Codec: FLAC
================================================================================


Thanks to the Original customer.