Elizabeth Sombart - Beethoven 250th Anniversary Series: Piano Concertos Vol. 1 (2020) [Official Digital Download 24/96]

Posted By: SERTiL
Elizabeth Sombart - Beethoven 250th Anniversary Series: Piano Concertos Vol. 1 (2020) [Official Digital Download 24/96]

Elizabeth Sombart - Beethoven 250th Anniversary Series: Piano Concertos Vol. 1 (2020)
FLAC (tracks) 24-bit/96 kHz | Time - 70:19 minutes | 1.21 GB
Studio Master, Official Digital Download | Artwork: Digital Booklet

Throughout her life French pianist Elizabeth Sombart has sought to share classical music with the widest possible audience and with people from disadvantaged backgrounds. Here she continues her series of recordings with the RPO and conductor Pierre Vallet, inaugurating a new cycle of Beethoven Piano Concertos, works she will be performing with the orchestra during the course of 2020.

Tracklist:
01. Piano Concerto No. 1 in C, Op. 15: I. Allegro con brio (15:00)
02. Piano Concerto No. 1 in C, Op. 15: II. Largo (13:34)
03. Piano Concerto No. 1 in C, Op. 15: III. Rondo allegro (9:46)
04. Piano Concerto No. 2 in B Flat, Op. 19: I. Allegro con brio (14:35)
05. Piano Concerto No. 2 in B Flat, Op. 19: II. Adagio (10:47)
06. Piano Concerto No. 2 in B Flat, Op. 19: III. Rondo. Molto allegro (6:38)

Personnel:
Elizabeth Sombart (piano)
Royal Philharmonic Orchestra
Pierre Vallet (conductor)

foobar2000 1.3.7 / Dynamic Range Meter 1.1.1
log date: 2020-03-10 12:21:10

––––––––––––––––––––––––––––––––––––––––
Analyzed: Elizabeth Sombart, Royal Philharmonic Orchestra & Pierre Vallet / Beethoven 250th Anniversary Series: Piano Concertos Vol. 1
––––––––––––––––––––––––––––––––––––––––

DR Peak RMS Duration Track
––––––––––––––––––––––––––––––––––––––––
DR11 -0.20 dB -15.73 dB 15:00 01-Piano Concerto No. 1 in C, Op. 15: I. Allegro con brio
DR14 -0.22 dB -19.90 dB 13:34 02-Piano Concerto No. 1 in C, Op. 15: II. Largo
DR11 -0.20 dB -15.55 dB 9:46 03-Piano Concerto No. 1 in C, Op. 15: III. Rondo allegro
DR11 -0.21 dB -15.34 dB 14:35 04-Piano Concerto No. 2 in B Flat, Op. 19: I. Allegro con brio
DR12 -0.21 dB -18.08 dB 10:47 05-Piano Concerto No. 2 in B Flat, Op. 19: II. Adagio
DR12 -0.21 dB -14.74 dB 6:38 06-Piano Concerto No. 2 in B Flat, Op. 19: III. Rondo. Molto allegro
––––––––––––––––––––––––––––––––––––––––

Number of tracks: 6
Official DR value: DR12

Samplerate: 96000 Hz
Channels: 2
Bits per sample: 24
Bitrate: 2484 kbps
Codec: FLAC
================================================================================


Thanks to the Original customer.