Wiener Philharmoniker, Leonard Bernstein - Beethoven: 9 Symphonies (1980/2017) [Official Digital Download 24/192]

Posted By: SERTiL
Wiener Philharmoniker, Leonard Bernstein - Beethoven: 9 Symphonies (1980/2017) [Official Digital Download 24/192]

Wiener Philharmoniker, Leonard Bernstein - Beethoven: 9 Symphonies (1980/2017)
FLAC (tracks) 24-bit/192 kHz | Time - 366:08 minutes | 12.0 GB
Studio Master, Official Digital Download | Artwork: Digital Booklet

Bernstein at 100 is a two-year global celebration of the 20th century cultural giant officially commencing on 22 September 2017. This remastered Beethoven Symphonies is the first product in DG’s suite of Bernstein releases to mark the occasion.

Tracklist:

Ludwig van Beethoven (1770-1827)

01. Symphony No.1 in C Major, Op.21: 1. Adagio molto-Allegro con brio
02. Symphony No.1 in C Major, Op.21: 2. Andante cantabile con moto
03. Symphony No.1 in C Major, Op.21: 3. Menuetto (Allegro molto e vivace)
04. Symphony No.1 in C Major, Op.21: 4. Finale (Adagio-Allegro molto e vivace)
05. Symphony No.2 in D Major, Op.36: 1. Adagio molto-Allegro con brio
06. Symphony No.2 in D Major, Op.36: 2. Larghetto
07. Symphony No.2 in D Major, Op.36: 3. Scherzo (Allegro)
08. Symphony No.2 in D Major, Op.36: 4. Allegro molto
09. Symphony No.3 In E Flat Major, Op.55 -"Eroica": 1. Allegro con brio
10. Symphony No.3 In E Flat Major, Op.55 -"Eroica": 2. Marcia funebre (Adagio assai)
11. Symphony No.3 In E Flat Major, Op.55 -"Eroica": 3. Scherzo (Allegro vivace)
12. Symphony No.3 In E Flat Major, Op.55 -"Eroica": 4. Finale (Allegro molto)
13. Symphony No.4 in B Flat Major, Op.60: 1. Adagio-Allegro vivace
14. Symphony No.4 in B Flat Major, Op.60: 2. Adagio
15. Symphony No.4 in B Flat Major, Op.60: 3. Allegro vivace
16. Symphony No.4 in B Flat Major, Op.60: 4. Allegro ma non troppo
17. Symphony No.5 in C minor, Op.67: 1. Allegro con brio
18. Symphony No.5 in C minor, Op.67: 2. Andante con moto
19. Symphony No.5 in C minor, Op.67: 3. Allegro
20. Symphony No.5 in C minor, Op.67: 4. Allegro
21. Symphony No.6 in F Major, Op.68 -"Pastoral": 1. Erwachen heiterer Empfindungen bei der Ankunft auf dem Lande: Allegro ma non troppo
22. Symphony No.6 in F Major, Op.68 -"Pastoral": 2. Szene am Bach: (Andante molto mosso)
23. Symphony No.6 in F Major, Op.68 -"Pastoral": 3. Lustiges Zusammensein der Landleute (Allegro)
24. Symphony No.6 in F Major, Op.68 -"Pastoral": 4. Gewitter, Sturm (Allegro)
25. Symphony No.6 in F Major, Op.68 -"Pastoral": 5. Hirtengesang. Frohe und dankbare Gefühle nach dem Sturm: Allegretto
26. Symphony No.7 in A Major, Op.92: 1. Poco sostenuto-Vivace
27. Symphony No.7 in A Major, Op.92: 2. Allegretto
28. Symphony No.7 in A Major, Op.92: 3. Presto-Assai meno presto
29. Symphony No.7 in A Major, Op.92: 4. Allegro con brio
30. Symphony No.8 in F, Op.93: 1. Allegro vivace e con brio
31. Symphony No.8 in F, Op.93: 2. Allegretto scherzando
32. Symphony No.8 in F, Op.93: 3. Tempo di menuetto
33. Symphony No.8 in F, Op.93: 4. Allegro vivace
34. Symphony No.9 in D minor, Op.125-"Choral": 1. Allegro ma non troppo, un poco maestoso
35. Symphony No.9 in D minor, Op.125-"Choral": 2. Molto vivace
36. Symphony No.9 in D minor, Op.125-"Choral": 3. Adagio molto e cantabile
37. Symphony No.9 in D minor, Op.125-"Choral": 4. Presto
38. Symphony No.9 in D minor, Op.125-"Choral": 4. Presto-"O Freunde, nicht diese Töne!"-Allegro assai

Personnel:
Gwyneth Jones, soprano
René Kollo, tenor
Kurt Moll, bass
Hanna Schwarz, Alt
Konzertvereinigung Wiener Staatsopernchor
Norbert Balatsch, Chorus Master
Wiener Philharmoniker
Leonard Bernstein, conductor

Digitally remastered

foobar2000 1.3.7 / Dynamic Range Meter 1.1.1
log date: 2017-11-17 18:06:41

––––––––––––––––––––––––––––––––––––––––
Analyzed: Wiener Philharmoniker, Leonard Bernstein / Beethoven: 9 Symphonies
––––––––––––––––––––––––––––––––––––––––

DR Peak RMS Duration Track
––––––––––––––––––––––––––––––––––––––––
DR15 -2.88 dB -22.53 dB 9:25 01-Symphony No.1 in C Major, Op.21: 1. Adagio molto-Allegro con brio
DR15 -6.16 dB -27.94 dB 8:13 02-Symphony No.1 in C Major, Op.21: 2. Andante cantabile con moto
DR12 -2.70 dB -20.68 dB 3:19 03-Symphony No.1 in C Major, Op.21: 3. Menuetto (Allegro molto e vivace)
DR14 -1.14 dB -21.19 dB 5:43 04-Symphony No.1 in C Major, Op.21: 4. Finale (Adagio-Allegro molto e vivace)
DR14 -0.49 dB -19.29 dB 13:26 05-Symphony No.2 in D Major, Op.36: 1. Adagio molto-Allegro con brio
DR15 -3.73 dB -25.28 dB 12:29 06-Symphony No.2 in D Major, Op.36: 2. Larghetto
DR14 -3.14 dB -22.69 dB 3:34 07-Symphony No.2 in D Major, Op.36: 3. Scherzo (Allegro)
DR13 0.00 dB -19.54 dB 6:18 08-Symphony No.2 in D Major, Op.36: 4. Allegro molto
DR15 -2.87 dB -22.80 dB 17:42 09-Symphony No.3 In E Flat Major, Op.55 -"Eroica": 1. Allegro con brio
DR14 -3.90 dB -24.64 dB 17:40 10-Symphony No.3 In E Flat Major, Op.55 -"Eroica": 2. Marcia funebre (Adagio assai)
DR13 -2.27 dB -24.43 dB 6:11 11-Symphony No.3 In E Flat Major, Op.55 -"Eroica": 3. Scherzo (Allegro vivace)
DR14 -2.05 dB -22.19 dB 11:49 12-Symphony No.3 In E Flat Major, Op.55 -"Eroica": 4. Finale (Allegro molto)
DR13 0.00 dB -18.42 dB 11:29 13-Symphony No.4 in B Flat Major, Op.60: 1. Adagio-Allegro vivace
DR14 -1.27 dB -22.02 dB 10:02 14-Symphony No.4 in B Flat Major, Op.60: 2. Adagio
DR14 -0.49 dB -20.50 dB 5:56 15-Symphony No.4 in B Flat Major, Op.60: 3. Allegro vivace
DR13 -0.25 dB -18.58 dB 6:49 16-Symphony No.4 in B Flat Major, Op.60: 4. Allegro ma non troppo
DR14 -3.97 dB -22.80 dB 8:38 17-Symphony No.5 in C minor, Op.67: 1. Allegro con brio
DR14 -3.26 dB -24.38 dB 10:21 18-Symphony No.5 in C minor, Op.67: 2. Andante con moto
DR14 -2.81 dB -26.25 dB 5:22 19-Symphony No.5 in C minor, Op.67: 3. Allegro
DR13 -1.01 dB -19.43 dB 11:16 20-Symphony No.5 in C minor, Op.67: 4. Allegro
DR13 -7.15 dB -25.71 dB 11:44 21-Symphony No.6 in F Major, Op.68 -"Pastoral": 1. Erwachen heiterer Empfindungen bei der Ankunft auf dem Lande: Allegro ma non troppo
DR13 -11.19 dB -29.72 dB 13:31 22-Symphony No.6 in F Major, Op.68 -"Pastoral": 2. Szene am Bach: (Andante molto mosso)
DR13 -5.93 dB -23.51 dB 5:25 23-Symphony No.6 in F Major, Op.68 -"Pastoral": 3. Lustiges Zusammensein der Landleute (Allegro)
DR12 -0.25 dB -18.66 dB 3:44 24-Symphony No.6 in F Major, Op.68 -"Pastoral": 4. Gewitter, Sturm (Allegro)
DR12 -5.33 dB -22.84 dB 10:16 25-Symphony No.6 in F Major, Op.68 -"Pastoral": 5. Hirtengesang. Frohe und dankbare Gefühle nach dem Sturm: Allegretto
DR13 -0.45 dB -19.07 dB 14:19 26-Symphony No.7 in A Major, Op.92: 1. Poco sostenuto-Vivace
DR15 -1.68 dB -24.01 dB 8:49 27-Symphony No.7 in A Major, Op.92: 2. Allegretto
DR12 -0.92 dB -19.58 dB 9:01 28-Symphony No.7 in A Major, Op.92: 3. Presto-Assai meno presto
DR12 -0.15 dB -16.25 dB 7:03 29-Symphony No.7 in A Major, Op.92: 4. Allegro con brio
DR13 -0.29 dB -18.55 dB 9:47 30-Symphony No.8 in F, Op.93: 1. Allegro vivace e con brio
DR15 -5.82 dB -26.93 dB 4:01 31-Symphony No.8 in F, Op.93: 2. Allegretto scherzando
DR13 -3.59 dB -21.76 dB 4:49 32-Symphony No.8 in F, Op.93: 3. Tempo di menuetto
DR13 -0.04 dB -18.47 dB 7:22 33-Symphony No.8 in F, Op.93: 4. Allegro vivace
DR14 -0.06 dB -21.16 dB 15:17 34-Symphony No.9 in D minor, Op.125-"Choral": 1. Allegro ma non troppo, un poco maestoso
DR14 -1.12 dB -22.74 dB 11:17 35-Symphony No.9 in D minor, Op.125-"Choral": 2. Molto vivace
DR19 -3.13 dB -29.63 dB 17:49 36-Symphony No.9 in D minor, Op.125-"Choral": 3. Adagio molto e cantabile
DR13 -5.59 dB -25.04 dB 7:43 37-Symphony No.9 in D minor, Op.125-"Choral": 4. Presto
DR14 -0.17 dB -19.01 dB 18:42 38-Symphony No.9 in D minor, Op.125-"Choral": 4. Presto-"O Freunde, nicht diese Töne!"-Allegro assai
––––––––––––––––––––––––––––––––––––––––

Number of tracks: 38
Official DR value: DR14

Samplerate: 192000 Hz
Channels: 2
Bits per sample: 24
Bitrate: 4414 kbps
Codec: FLAC
================================================================================


Thanks to the Original customer.