Shani Diluka & Valentin Erben - Beethoven: Complete Works for Cello and Piano (2017) [Official Digital Download]

Posted By: SERTiL
Shani Diluka & Valentin Erben - Beethoven: Complete Works for Cello and Piano (2017) [Official Digital Download]

Shani Diluka & Valentin Erben - Beethoven: Complete Works for Cello and Piano (2017)
FLAC (tracks) 24-bit/44.1kHz | Time - 136:54 minutes | 1.13 GB
Studio Master, Official Digital Download | Artwork: Digital booklet

Music is flux. Only the printed music on the page appears to us to be something objective, inalterable. Yet, the actual experience of music, which occurs anew and uniquely in each performance, is subjected to continual changes in spite of all “faithfulness to the original.” Personal experiences of life inform the effect of the music. It is the power of great music to convey its individual message at any time to every person. Thus the recordings on this album represent an invitation to undertake a very personal journey into Beethoven’s world.



Tracklist:

Ludwig van Beethoven (1770-1827)

Disc 1:
01. Cello Sonata No. 1, Op. 5, No. 1: I. Adagio sostenuto-Allegro
02. Cello Sonata No. 1, Op. 5, No. 1: II. Allegro vivace
03. Cello Sonata No. 2, Op. 5, No. 2: I. Adagio sostenuto ed espressivo
04. Cello Sonata No. 2, Op. 5, No. 2: II. Allegro molto più tosto presto
05. Cello Sonata No. 2, Op. 5, No. 2: III. Rondo. Allegro
06. 12 Variations on 'See the conqu'ring hero comes', WoO 45: Tema. Allegretto-Var. I-XII
07. Cello Sonata No. 4, Op. 102, No. 1: I. Andante-Allegro vivace
08. Cello Sonata No. 4, Op. 102, No. 1: II. Adagio-Allegro vivace

Disc 2:
01. Cello Sonata No. 3, Op. 69: I. Allegro, ma non tanto
02. Cello Sonata No. 3, Op. 69: II. Scherzo. Allegro molto
03. Cello Sonata No. 3, Op. 69: III. Adagio cantabile-Allegro vivace
04. 12 Variations on 'Ein Mädchen oder Weibchen', Op. 66: Tema. Allegretto-Var. I-XII
05. 7 Variations on 'Bei Männern, welche Liebe fühlen', WoO 46: Tema. Andante-Var. I-VII
06. Cello Sonata No. 5, Op. 102, No. 2: I. Allegro con brio
07. Cello Sonata No. 5, Op. 102, No. 2: II. Adagio con molto sentimento d'affetto
08. Cello Sonata No. 5, Op. 102, No. 2: III. Allegro

Personnel:
Shani Diluka (piano)
Valentin Erben (cello)

foobar2000 1.3.7 / Dynamic Range Meter 1.1.1
log date: 2017-10-30 20:45:51

––––––––––––––––––––––––––––––––––––––––
Analyzed: Shani Diluka, Valentin Erben / Beethoven: Complete Works for Cello and Piano
––––––––––––––––––––––––––––––––––––––––

DR Peak RMS Duration Track
––––––––––––––––––––––––––––––––––––––––
DR14 -0.98 dB -21.57 dB 16:31 01-Cello Sonata No. 1, Op. 5, No. 1: I. Adagio sostenuto-Allegro
DR14 -1.47 dB -21.32 dB 6:45 02-Cello Sonata No. 1, Op. 5, No. 1: II. Allegro vivace
DR14 -3.92 dB -26.14 dB 5:07 03-Cello Sonata No. 2, Op. 5, No. 2: I. Adagio sostenuto ed espressivo
DR14 -0.54 dB -22.08 dB 13:27 04-Cello Sonata No. 2, Op. 5, No. 2: II. Allegro molto più tosto presto
DR16 -1.20 dB -23.57 dB 9:16 05-Cello Sonata No. 2, Op. 5, No. 2: III. Rondo. Allegro
DR15 -2.37 dB -23.38 dB 10:46 06-12 Variations on 'See the conqu'ring hero comes', WoO 45: Tema. Allegretto-Var. I-XII
DR15 -1.77 dB -22.52 dB 7:04 07-Cello Sonata No. 4, Op. 102, No. 1: I. Andante-Allegro vivace
DR15 -2.39 dB -23.14 dB 6:39 08-Cello Sonata No. 4, Op. 102, No. 1: II. Adagio-Allegro vivace
DR14 -2.98 dB -22.70 dB 11:35 01-Cello Sonata No. 3, Op. 69: I. Allegro, ma non tanto
DR12 -4.30 dB -22.25 dB 5:05 02-Cello Sonata No. 3, Op. 69: II. Scherzo. Allegro molto
DR16 -1.88 dB -23.29 dB 8:11 03-Cello Sonata No. 3, Op. 69: III. Adagio cantabile-Allegro vivace
DR15 -3.03 dB -24.80 dB 9:16 04-12 Variations on 'Ein Mädchen oder Weibchen', Op. 66: Tema. Allegretto-Var. I-XII
DR15 -3.41 dB -25.16 dB 8:49 05-7 Variations on 'Bei Männern, welche Liebe fühlen', WoO 46: Tema. Andante-Var. I-VII
DR13 -2.75 dB -20.96 dB 6:26 06-Cello Sonata No. 5, Op. 102, No. 2: I. Allegro con brio
DR14 -5.19 dB -26.55 dB 7:45 07-Cello Sonata No. 5, Op. 102, No. 2: II. Adagio con molto sentimento d'affetto
DR13 -1.80 dB -20.28 dB 4:22 08-Cello Sonata No. 5, Op. 102, No. 2: III. Allegro
––––––––––––––––––––––––––––––––––––––––

Number of tracks: 16
Official DR value: DR14

Samplerate: 44100 Hz
Channels: 2
Bits per sample: 24
Bitrate: 1227 kbps
Codec: FLAC
================================================================================


Thanks to the Original customer.