Tags
Language
Tags
February 2023
Su Mo Tu We Th Fr Sa
29 30 31 1 2 3 4
5 6 7 8 9 10 11
12 13 14 15 16 17 18
19 20 21 22 23 24 25
26 27 28 1 2 3 4

Angela Hewitt - Beethoven - Piano Sonatas Volume 7 (2018) [Official Digital Download 24/96]

Posted By: SERTiL
Angela Hewitt - Beethoven - Piano Sonatas Volume 7 (2018) [Official Digital Download 24/96]

Angela Hewitt - Beethoven - Piano Sonatas Volume 7 (2018)
FLAC (tracks) 24-bit/96 kHz | Time - 70:15 minutes | 1.15 GB
Studio Master, Official Digital Download | Artwork: Digital Booklet

This latest instalment of Angela Hewitt’s Beethoven is bookended by the great ‘Tempest’ and Op 109 sonatas. The performances—incentive enough to acquire this release—are as usual complemented by Angela’s own booklet notes which provide real insight into how she approaches these masterworks.



Tracklist:
01. Piano Sonata in D minor 'Tempest', Op 31 No 2 - 1: Largo – Allegro (8:41)
02. Piano Sonata in D minor 'Tempest', Op 31 No 2 - 2: Adagio (7:53)
03. Piano Sonata in D minor 'Tempest', Op 31 No 2 - 3: Allegretto (7:26)
04. Piano Sonata in E flat major 'Quasi una fantasia', Op 27 No 1 - 1: Andante – Allegro – Tempo I (5:09)
05. Piano Sonata in E flat major 'Quasi una fantasia', Op 27 No 1 - 2: Allegro molto e vivace (2:05)
06. Piano Sonata in E flat major 'Quasi una fantasia', Op 27 No 1 - 3: Adagio con espressione (2:53)
07. Piano Sonata in E flat major 'Quasi una fantasia', Op 27 No 1 - 4: Allegro vivace (6:22)
08. Piano Sonata in G major, Op 79 - 1: Presto alla tedesca (5:14)
09. Piano Sonata in G major, Op 79 - 2: Andante 2:05 (2:30)
10. Piano Sonata in G major, Op 79 - 3: Vivace (2:22)
11. Piano Sonata in E major, Op 109 - 1: Vivace, ma non troppo – Adagio espressivo (3:44)
12. Piano Sonata in E major, Op 109 - 2: Prestissimo (2:40)
13. Piano Sonata in E major, Op 109 - 3: Andante molto cantabile ed espressivo: Gesang mit innigster Empfindung (13:16)

foobar2000 1.3.7 / Dynamic Range Meter 1.1.1
log date: 2018-06-05 23:04:22

––––––––––––––––––––––––––––––––––––––––
Analyzed: Angela Hewitt / Beethoven - Piano Sonatas Volume 7
––––––––––––––––––––––––––––––––––––––––

DR Peak RMS Duration Track
––––––––––––––––––––––––––––––––––––––––
DR14 -0.30 dB -19.05 dB 8:41 01-Piano Sonata in D minor 'Tempest', Op 31 No 2 - 1: Largo – Allegro
DR17 -0.98 dB -24.01 dB 7:54 02-Piano Sonata in D minor 'Tempest', Op 31 No 2 - 2: Adagio
DR13 -1.33 dB -19.01 dB 7:27 03-Piano Sonata in D minor 'Tempest', Op 31 No 2 - 3: Allegretto
DR16 -0.30 dB -21.48 dB 5:09 04-Piano Sonata in E flat major 'Quasi una fantasia', Op 27 No 1 - 1: Andante – Allegro – Tempo I
DR13 -0.30 dB -18.38 dB 2:06 05-Piano Sonata in E flat major 'Quasi una fantasia', Op 27 No 1 - 2: Allegro molto e vivace
DR13 -4.31 dB -24.09 dB 2:54 06-Piano Sonata in E flat major 'Quasi una fantasia', Op 27 No 1 - 3: Adagio con espressione
DR12 -0.30 dB -17.45 dB 6:22 07-Piano Sonata in E flat major 'Quasi una fantasia', Op 27 No 1 - 4: Allegro vivace
DR14 -0.30 dB -19.01 dB 5:15 08-Piano Sonata in G major, Op 79 - 1: Presto alla tedesca
DR12 -6.63 dB -23.65 dB 2:31 09-Piano Sonata in G major, Op 79 - 2: Andante
DR14 -0.30 dB -19.28 dB 2:22 10-Piano Sonata in G major, Op 79 - 3: Vivace
DR13 -0.30 dB -18.96 dB 3:45 11-Piano Sonata in E major, Op 109 - 1: Vivace, ma non troppo – Adagio espressivo
DR12 -0.30 dB -16.74 dB 2:41 12-Piano Sonata in E major, Op 109 - 2: Prestissimo
DR14 -0.30 dB -19.83 dB 13:16 13-Piano Sonata in E major, Op 109 - 3: Andante molto cantabile ed espressivo: Gesang mit innigster Empfindung
––––––––––––––––––––––––––––––––––––––––

Number of tracks: 13
Official DR value: DR14

Samplerate: 96000 Hz
Channels: 2
Bits per sample: 24
Bitrate: 2318 kbps
Codec: FLAC
================================================================================


Thanks to the Original customer.