Llŷr Williams - Beethoven: Sonatas, Vol. 7 / Diabelli Variations (2017) [Official Digital Download 24/96]

Posted By: SERTiL
Llŷr Williams - Beethoven: Sonatas, Vol. 7 / Diabelli Variations (2017) [Official Digital Download 24/96]

Llŷr Williams - Beethoven: Sonatas, Vol. 7 / Diabelli Variations (2017)
FLAC (tracks) 24-bit/96 kHz | Time - 115:57 minutes | 1.86 GB
Studio Master, Official Digital Download | Artwork: Front Cover

Welsh pianist, Llŷr Williams, is widely admired for his profound musical intelligence, and for the expressive and communicative nature of his interpretations. He has worked with orchestras around the world, including the BBC National Orchestra of Wales, Scottish Chamber Orchestra, London Philharmonic Orchestra, London Symphony Orchestra, BBC Philharmonic Orchestra, Hallé Orchestra, London Mozart Players, Sinfonia Cymru, I Pomeriggi Musicali, Meininger Hofkapelle, Berner Kammerorchester, Limburgs Symphony and the Mozarteum Orchestra in Salzburg. He also appears at the BBC Proms in London and has given many remarkable performances at the Edinburgh International Festival, including an astonishing performance of Charles Ives’ 'Concord' Sonata in 2010. He is a regular performer in the Wigmore Hall’s main piano series.
Llŷr Williams is a regular performer at the East Neuk Festival in Scotland, Handelsbeurs Concertzaal Gent, and in the Piano aux Jacobins series in Toulouse. He is also currently artist in residence at Galeri Caernarfon in Wales. 2010 saw the release of a solo CD featuring music by Mussorgsky, Debussy and Liszt, on the Signum Label. In 2012, a second disc was released by Signum, featuring works by Liszt. Both discs were met with critical acclaim. Also available is a live recording from the 2012 East Neuk Festival, containing Beethoven’s Op 109 and Op 110 sonatas. Llŷr Williams is the subject of two films produced for S4C: the first of which won a Welsh BAFTA for Best Music Programme, and the second featured his debut at Carnegie Hall.

A regular collaborator with violinist Alexander Janiczek, they have performed at the Wigmore Hall together, and given a full Beethoven series in Perth. Llŷr Williams also has a great love of lieder and he is one of the official accompanists at the BBC Cardiff Singer of the World Competition.

Born in 1976 in Pentrebychan, North Wales, Llŷr Williams read music at The Queen’s College, Oxford and went on to take up a postgraduate scholarship at the Royal Academy of Music where he won every available prize and award. He is also an Honorary Fellow of the Royal Welsh College of Music and Drama. He was an active member of the Live Music Now! scheme for several years, was selected for the Young Concert Artists in 2002. From 2003-2005 he was a BBC New Generation Artist and in 2004 received a Borletti-Buitoni Trust award.

TRACKLIST

Ludwig van Beethoven (1770-1827)

CD1
01. Piano Sonata in C Minor, Op. 10, No. 1: I. Molto allegro e con brio
02. Piano Sonata in C Minor, Op. 10, No. 1: II. Adagio molto
03. Piano Sonata in C Minor, Op. 10, No. 1: III. Finale. Prestissimo
04. Piano Sonata in F Major, Op. 10, No. 2: I. Allegro
05. Piano Sonata in F Major, Op. 10, No. 2: II. Allegretto
06. Piano Sonata in F Major, Op. 10, No. 2: III. Presto
07. Piano Sonata in D Major, Op. 10, No. 3: I. Presto
08. Piano Sonata in D Major, Op. 10, No. 3: II. Largo e mesto
09. Piano Sonata in D Major, Op. 10, No. 3: III. Menuetto. Allegro
10. Piano Sonata in D Major, Op. 10, No. 3: IV. Rondo-Allegro

CD2
01. 33 Variations on a Waltz by Diabelli, Op. 120: No. 1 Thema
02. 33 Variations on a Waltz by Diabelli, Op. 120: No. 2 Variation I-Alla Marcia maestoso
03. 33 Variations on a Waltz by Diabelli, Op. 120: No. 3 Variation II-Poco Allegro
04. 33 Variations on a Waltz by Diabelli, Op. 120: No. 4 Variation III-L'istesso tempo
05. 33 Variations on a Waltz by Diabelli, Op. 120: No. 5 Variation IV-Un poco più vivace
06. 33 Variations on a Waltz by Diabelli, Op. 120: No. 6 Variation V-Allegro vivace
07. 33 Variations on a Waltz by Diabelli, Op. 120: No. 7 Variation VI-Allegro ma non troppo e serioso
08. 33 Variations on a Waltz by Diabelli, Op. 120: No. 8 Variation VII-Un poco più allegro
09. 33 Variations On A Waltz By Diabelli, Op. 120: No. 9 Variation VIII-Poco Vivace
10. 33 Variations on a Waltz by Diabelli, Op. 120: No. 10 Variation IX-Allegro pesante e risoluto
11. 33 Variations on a Waltz by Diabelli, Op. 120: No. 11 Variation X-Presto
12. 33 Variations on a Waltz by Diabelli, Op. 120: No. 12 Variation XI-Allegretto
13. 33 Variations on a Waltz by Diabelli, Op. 120: No. 13 Variation XII-Un poco più moto
14. 33 Variations On A Waltz By Diabelli, Op. 120: No. 14 Variation XIII-Vivace
15. 33 Variations on a Waltz by Diabelli, Op. 120: No. 15 Variation XIV-Grave e maestoso
16. 33 Variations on a Waltz by Diabelli, Op. 120: No. 16 Variation XV-Presto Scherzando
17. 33 Variations on a Waltz by Diabelli, Op. 120: No. 17 Variation XVI-Allegro
18. 33 Variations On A Waltz By Diabelli, Op. 120: No. 18 Variation XVII-Allegro
19. 33 Variations On A Waltz By Diabelli, Op. 120: No. 19 Variation XVIII-Poco Moderato
20. 33 Variations on a Waltz by Diabelli, Op. 120: No. 20 Variation XIX-Presto
21. 33 Variations on a Waltz by Diabelli, Op. 120: No. 21 Variation XX-Andante
22. 33 Variations on a Waltz by Diabelli, Op. 120: No. 22 Variation XXI-Allegro con brio-Meno allegro-Tempo primo
23. 33 Variations On A Waltz By Diabelli, Op. 120: No. 23 Variation Xxii-Allegro Molto, Alla 'Notte E Giorno Faticar' Di Mozart
24. 33 Variations On A Waltz By Diabelli, Op. 120: No. 24 Variation Xxiii-Allegro Assai
25. 33 Variations On A Waltz By Diabelli, Op. 120: No. 25 Variation Xxiv-Fughetta (Andante)
26. 33 Variations on a Waltz by Diabelli, Op. 120: No. 26 Variation XXV-Allegro
27. 33 Variations On A Waltz By Diabelli, Op. 120: No. 27 Variation Xxvi-(Piacevole)
28. 33 Variations On A Waltz By Diabelli, Op. 120: No. 28 Variation Xxvii-Vivace
29. 33 Variations On A Waltz By Diabelli, Op. 120: No. 29 Variation Xxviii-Allegro
30. 33 Variations On A Waltz By Diabelli, Op. 120: No. 30 Variation Xxix-Adagio Ma Non Troppo
31. 33 Variations on a Waltz by Diabelli, Op. 120: No. 31 Variation XXX-Andante, sempre cantabile
32. 33 Variations On A Waltz By Diabelli, Op. 120: No. 32 Variation Xxxi-Largo, Molto Espressivo
33. 33 Variations On A Waltz By Diabelli, Op. 120: No. 33 Variation Xxxii-Fuga-Allegro
34. 33 Variations On A Waltz By Diabelli, Op. 120: No. 34 Variation Xxxiii-Tempo Di Menuetto Moderato

PERSONNEL
Llŷr Williams, piano

foobar2000 1.3.7 / Dynamic Range Meter 1.1.1
log date: 2017-07-31 21:18:45

––––––––––––––––––––––––––––––––––––––––
Analyzed: Llŷr Williams / Beethoven Sonatas, Vol. 7 / Diabelli Variations
––––––––––––––––––––––––––––––––––––––––

DR Peak RMS Duration Track
––––––––––––––––––––––––––––––––––––––––
DR16 -0.42 dB -19.83 dB 6:29 01-Piano Sonata in C Minor, Op. 10, No. 1: I. Molto allegro e con brio
DR17 -2.33 dB -25.61 dB 9:26 02-Piano Sonata in C Minor, Op. 10, No. 1: II. Adagio molto
DR14 -0.42 dB -19.43 dB 4:50 03-Piano Sonata in C Minor, Op. 10, No. 1: III. Finale. Prestissimo
DR14 -0.69 dB -20.54 dB 6:09 04-Piano Sonata in F Major, Op. 10, No. 2: I. Allegro
DR15 -2.23 dB -23.83 dB 4:35 05-Piano Sonata in F Major, Op. 10, No. 2: II. Allegretto
DR13 -0.42 dB -18.11 dB 3:53 06-Piano Sonata in F Major, Op. 10, No. 2: III. Presto
DR15 -0.42 dB -19.27 dB 7:02 07-Piano Sonata in D Major, Op. 10, No. 3: I. Presto
DR16 -0.42 dB -22.48 dB 10:57 08-Piano Sonata in D Major, Op. 10, No. 3: II. Largo e mesto
DR13 -4.59 dB -22.72 dB 2:58 09-Piano Sonata in D Major, Op. 10, No. 3: III. Menuetto. Allegro
DR14 -1.08 dB -20.64 dB 4:17 10-Piano Sonata in D Major, Op. 10, No. 3: IV. Rondo-Allegro
DR12 -3.14 dB -17.97 dB 0:53 01-33 Variations on a Waltz by Diabelli, Op. 120: No. 1 Thema
DR13 -0.67 dB -17.17 dB 2:02 02-33 Variations on a Waltz by Diabelli, Op. 120: No. 2 Variation I-Alla Marcia maestoso
DR11 -10.87 dB -25.58 dB 0:55 03-33 Variations on a Waltz by Diabelli, Op. 120: No. 3 Variation II-Poco Allegro
DR12 -7.15 dB -23.07 dB 1:19 04-33 Variations on a Waltz by Diabelli, Op. 120: No. 4 Variation III-L'istesso tempo
DR13 -0.91 dB -18.80 dB 1:05 05-33 Variations on a Waltz by Diabelli, Op. 120: No. 5 Variation IV-Un poco più vivace
DR12 -2.04 dB -18.98 dB 0:58 06-33 Variations on a Waltz by Diabelli, Op. 120: No. 6 Variation V-Allegro vivace
DR13 -2.73 dB -18.93 dB 1:43 07-33 Variations on a Waltz by Diabelli, Op. 120: No. 7 Variation VI-Allegro ma non troppo e serioso
DR11 -3.37 dB -17.24 dB 1:06 08-33 Variations on a Waltz by Diabelli, Op. 120: No. 8 Variation VII-Un poco più allegro
DR11 -8.30 dB -22.83 dB 1:15 09-33 Variations On A Waltz By Diabelli, Op. 120: No. 9 Variation VIII-Poco Vivace
DR13 -0.42 dB -17.77 dB 1:47 10-33 Variations on a Waltz by Diabelli, Op. 120: No. 10 Variation IX-Allegro pesante e risoluto
DR11 -1.69 dB -19.23 dB 0:41 11-33 Variations on a Waltz by Diabelli, Op. 120: No. 11 Variation X-Presto
DR12 -8.79 dB -25.61 dB 1:11 12-33 Variations on a Waltz by Diabelli, Op. 120: No. 12 Variation XI-Allegretto
DR13 -2.01 dB -19.42 dB 0:55 13-33 Variations on a Waltz by Diabelli, Op. 120: No. 13 Variation XII-Un poco più moto
DR13 -0.70 dB -18.73 dB 1:21 14-33 Variations On A Waltz By Diabelli, Op. 120: No. 14 Variation XIII-Vivace
DR15 -0.67 dB -22.51 dB 4:07 15-33 Variations on a Waltz by Diabelli, Op. 120: No. 15 Variation XIV-Grave e maestoso
DR11 -7.01 dB -21.99 dB 0:42 16-33 Variations on a Waltz by Diabelli, Op. 120: No. 16 Variation XV-Presto Scherzando
DR10 -2.38 dB -15.31 dB 0:58 17-33 Variations on a Waltz by Diabelli, Op. 120: No. 17 Variation XVI-Allegro
DR12 -1.45 dB -17.65 dB 1:03 18-33 Variations On A Waltz By Diabelli, Op. 120: No. 18 Variation XVII-Allegro
DR13 -7.74 dB -25.94 dB 2:09 19-33 Variations On A Waltz By Diabelli, Op. 120: No. 19 Variation XVIII-Poco Moderato
DR10 -4.51 dB -17.54 dB 0:50 20-33 Variations on a Waltz by Diabelli, Op. 120: No. 20 Variation XIX-Presto
DR16 -11.98 dB -34.12 dB 2:47 21-33 Variations on a Waltz by Diabelli, Op. 120: No. 21 Variation XX-Andante
DR11 -2.91 dB -19.10 dB 1:39 22-33 Variations on a Waltz by Diabelli, Op. 120: No. 22 Variation XXI-Allegro con brio-Meno allegro-Tempo primo
DR13 -2.83 dB -20.36 dB 0:50 23-33 Variations On A Waltz By Diabelli, Op. 120: No. 23 Variation Xxii-Allegro Molto, Alla 'Notte E Giorno Faticar' Di Mozart
DR14 -0.46 dB -17.26 dB 0:58 24-33 Variations On A Waltz By Diabelli, Op. 120: No. 24 Variation Xxiii-Allegro Assai
DR13 -9.55 dB -26.39 dB 3:04 25-33 Variations On A Waltz By Diabelli, Op. 120: No. 25 Variation Xxiv-Fughetta (Andante)
DR11 -2.30 dB -18.91 dB 0:48 26-33 Variations on a Waltz by Diabelli, Op. 120: No. 26 Variation XXV-Allegro
DR11 -5.30 dB -21.20 dB 0:57 27-33 Variations On A Waltz By Diabelli, Op. 120: No. 27 Variation Xxvi-(Piacevole)
DR13 -2.58 dB -18.07 dB 0:57 28-33 Variations On A Waltz By Diabelli, Op. 120: No. 28 Variation Xxvii-Vivace
DR12 -0.56 dB -15.18 dB 1:01 29-33 Variations On A Waltz By Diabelli, Op. 120: No. 29 Variation Xxviii-Allegro
DR12 -8.27 dB -25.54 dB 1:14 30-33 Variations On A Waltz By Diabelli, Op. 120: No. 30 Variation Xxix-Adagio Ma Non Troppo
DR13 -10.06 dB -27.67 dB 2:12 31-33 Variations on a Waltz by Diabelli, Op. 120: No. 31 Variation XXX-Andante, sempre cantabile
DR12 -6.46 dB -24.85 dB 5:06 32-33 Variations On A Waltz By Diabelli, Op. 120: No. 32 Variation Xxxi-Largo, Molto Espressivo
DR12 -0.42 dB -17.46 dB 3:03 33-33 Variations On A Waltz By Diabelli, Op. 120: No. 33 Variation Xxxii-Fuga-Allegro
DR15 -0.42 dB -22.37 dB 4:04 34-33 Variations On A Waltz By Diabelli, Op. 120: No. 34 Variation Xxxiii-Tempo Di Menuetto Moderato
––––––––––––––––––––––––––––––––––––––––

Number of tracks: 44
Official DR value: DR13

Samplerate: 96000 Hz
Channels: 2
Bits per sample: 24
Bitrate: 2288 kbps
Codec: FLAC
================================================================================